↑↓Torrent.by
Поиск
Логин: Регистрация
Пароль: Восстановить пароль
Загрузка...

Дом, который построил Джек / The House That Jack Built (2018) WEB-DLRip-AVC от OlLanDGroup | P, A

Скачать dom-kotoryy-postroil-dzhek-the-house-that-jack-built-2018-web-dlrip-avc-ot-ollandgroup-p-a.torrent
U Магнитная ссылка Размер: 2.89 GB Раздают: 96 Качают: 27 Добавлен: 2019-01-11 05:44:12
Дом, который построил Джек / The House That Jack Built (2018) WEB-DLRip-AVC от OlLanDGroup | P, A

Дом, который построил Джек / The House That Jack Built

Год выпуска: 2018
Страна: Дания, Франция, Германия, Швеция
Производство: Zentropa Entertainments, Centre National du Cinéma et de l'Image, Copenhagen Film Fund
Жанр:  Ужасы, триллер, драма

Режиссёр: Ларс фон Триер
В ролях: Мэтт Диллон, Бруно Ганц, Ума Турман, Шиван Фэллон, Софи Гробёль, Райли Кио, Джереми Дэвис, Эдвард Спелирс, Дэвид Бэйли, Ю Джи-тхэ

Перевод:
• Профессиональный (многоголосый, закадровый) | [HDRezka Studio]
• Авторский (одноголосый, закадровый) | [Яроцкий] | UNCENCORED
Субтитры: Русские (полные), английские (полные)
Реклама: Отсутствует

Описание: История серийного убийцы по имени Джек разворачивается в Америке 70-х. За 12 лет блестящей «карьеры» Джеку встретятся назойливая попутчица, наивная подружка и другие очаровательные в своей глупости жертвы. Пять невероятных, до жути изобретательных и порой до смеха абсурдных убийств, к каждому из которых Джек относится как к настоящему произведению искусства.

Качество: WEB-DLRip-AVC | |
Продолжительность: 02:30:49

Формат: MKV
Видео кодек: MPEG-4 AVC
Аудио кодек: AC3
Видео: 1024x424 (2.40:1), 24,000 fps, x264 ~1 784 kbps avg, 0.171 bit/pixel
Аудио #1: 48 kHz, AC3 Dolby Digital, 2 (L,R) ch, ~192.00 kbps avg | RUS (HDRezka Studio)
Аудио #1: 48 kHz, AC3 Dolby Digital, 3/2 (L,C,R,l,r) + LFE ch, ~384.00 kbps avg | RUS (Яроцкий)
Аудио #1: 48 kHz, AC3 Dolby Digital, 3/2 (L,C,R,l,r) + LFE ch, ~384.00 kbps avg | ENG

Дата премьеры (мир): 14 мая 2018
Дата премьеры (РФ): 6 декабря 2018, «Russian World Vision», «A-One Films»
Цифровой релиз:

Релиз: Rip by:


[+] MediaInfo

Общее
Уникальный идентификатор                 : 132605655163577579999025923509617582525 (0x63C2EB92B75BA8EE1765867F823261BD)
Полное имя                               : F:OlLanDGroupThe.House.That.Jack.Built.2018.WEB-DLRip(AVC).OlLanDGroup.mkv
Формат                                   : Matroska
Версия формата                           : Version 4 / Version 2
Размер файла                             : 2,89 Гбайт
Продолжительность                        : 2 ч. 30 м.
Общий поток                              : 2745 Кбит/сек
Название фильма                          : The.House.That.Jack.Built.2018   #TorpedoUK#
Дата кодирования                         : UTC 2019-01-10 14:07:43
Программа кодирования                    : mkvmerge v29.0.0 ('Like It Or Not') 64-bit
Библиотека кодирования                   : libebml v1.3.6 + libmatroska v1.4.9

Видео
Идентификатор                            : 1
Формат                                   : AVC
Формат/Информация                        : Advanced Video Codec
Профиль формата                          : High@L4.1
Параметр CABAC формата                   : Да
Параметр ReFrames формата                : 10 кадров
Идентификатор кодека                     : V_MPEG4/ISO/AVC
Продолжительность                        : 2 ч. 30 м.
Битрейт                                  : 1784 Кбит/сек
Ширина                                   : 1024 пикселя
Высота                                   : 424 пикселя
Соотношение сторон                       : 2,40:1
Режим частоты кадров                     : Постоянный
Частота кадров                           : 24,000 кадра/сек
Цветовое пространство                    : YUV
Субдискретизация насыщенности            : 4:2:0
Битовая глубина                          : 8 бит
Тип развёртки                            : Прогрессивная
Бит/(Пиксели*Кадры)                      : 0.171
Размер потока                            : 1,88 Гбайт (65%)
Библиотека кодирования                   : x264 core 146 r2538 121396c
Настройки программы                      : cabac=1 / ref=10 / deblock=1:-3:-2 / analyse=0x3:0x113 / me=umh / subme=10 / psy=1 / psy_rd=0.95:0.07 / mixed_ref=1 / me_range=48 / chroma_me=1 / trellis=2 / 8x8dct=1 / cqm=0 / deadzone=21,11 / fast_pskip=1 / chroma_qp_offset=-3 / threads=6 / lookahead_threads=1 / sliced_threads=0 / nr=0 / decimate=1 / interlaced=0 / bluray_compat=0 / constrained_intra=0 / bframes=11 / b_pyramid=2 / b_adapt=2 / b_bias=0 / direct=3 / weightb=1 / open_gop=0 / weightp=2 / keyint=240 / keyint_min=24 / scenecut=40 / intra_refresh=0 / rc_lookahead=40 / rc=2pass / mbtree=0 / bitrate=1784 / ratetol=1.0 / qcomp=0.60 / qpmin=0 / qpmax=69 / qpstep=4 / cplxblur=20.0 / qblur=0.5 / vbv_maxrate=50000 / vbv_bufsize=62500 / nal_hrd=none / filler=0 / ip_ratio=1.40 / pb_ratio=1.30 / aq=1:1.00
Язык                                     : English
Default                                  : Да
Forced                                   : Нет

Аудио #1
Идентификатор                            : 2
Формат                                   : AC-3
Формат/Информация                        : Audio Coding 3
Расширение режима                        : CM (complete main)
Параметр Endianness формата              : Big
Идентификатор кодека                     : A_AC3
Продолжительность                        : 2 ч. 30 м.
Вид битрейта                             : Постоянный
Битрейт                                  : 192 Кбит/сек
Каналы                                   : 2 канала
Расположение каналов                     : Front: L R
Частота                                  : 48,0 КГц
Частота кадров                           : 31,250 кадров/сек (1536 spf)
Битовая глубина                          : 16 бит
Метод сжатия                             : С потерями
Размер потока                            : 207 Мбайт (7%)
Заголовок                                : MVO [HDRezka Studio]
Язык                                     : Russian
Default                                  : Да
Forced                                   : Нет

Аудио #2
Идентификатор                            : 3
Формат                                   : AC-3
Формат/Информация                        : Audio Coding 3
Расширение режима                        : CM (complete main)
Параметр Endianness формата              : Big
Идентификатор кодека                     : A_AC3
Продолжительность                        : 2 ч. 30 м.
Вид битрейта                             : Постоянный
Битрейт                                  : 384 Кбит/сек
Каналы                                   : 6 каналов
Расположение каналов                     : Front: L C R, Side: L R, LFE
Частота                                  : 48,0 КГц
Частота кадров                           : 31,250 кадров/сек (1536 spf)
Битовая глубина                          : 16 бит
Метод сжатия                             : С потерями
Размер потока                            : 414 Мбайт (14%)
Заголовок                                : AVO [Jarotski]
Язык                                     : Russian
Default                                  : Нет
Forced                                   : Нет

Аудио #3
Идентификатор                            : 4
Формат                                   : AC-3
Формат/Информация                        : Audio Coding 3
Расширение режима                        : CM (complete main)
Параметр Endianness формата              : Big
Идентификатор кодека                     : A_AC3
Продолжительность                        : 2 ч. 30 м.
Вид битрейта                             : Постоянный
Битрейт                                  : 384 Кбит/сек
Каналы                                   : 6 каналов
Расположение каналов                     : Front: L C R, Side: L R, LFE
Частота                                  : 48,0 КГц
Частота кадров                           : 31,250 кадров/сек (1536 spf)
Битовая глубина                          : 16 бит
Метод сжатия                             : С потерями
Размер потока                            : 414 Мбайт (14%)
Заголовок                                : [Original]
Язык                                     : English
Default                                  : Нет
Forced                                   : Нет

Текст #1
Идентификатор                            : 5
Формат                                   : UTF-8
Идентификатор кодека                     : S_TEXT/UTF8
Идентификатор кодека/Информация          : UTF-8 Plain Text
Продолжительность                        : 2 ч. 30 м.
Битрейт                                  : 77 бит/сек
Count of elements                        : 1638
Размер потока                            : 84,8 Кбайт (0%)
Заголовок                                : Full
Язык                                     : Russian
Default                                  : Нет
Forced                                   : Нет

Текст #2
Идентификатор                            : 6
Формат                                   : UTF-8
Идентификатор кодека                     : S_TEXT/UTF8
Идентификатор кодека/Информация          : UTF-8 Plain Text
Продолжительность                        : 2 ч. 23 м.
Битрейт                                  : 44 бит/сек
Count of elements                        : 1506
Размер потока                            : 47,1 Кбайт (0%)
Заголовок                                : Full
Язык                                     : English
Default                                  : Нет
Forced                                   : Нет

Меню
00:00:00.000                             : en:1
00:14:58.040                             : en:2
00:26:39.409                             : en:3
00:41:14.249                             : en:4
00:51:58.158                             : en:5
00:57:44.947                             : en:6
01:10:22.367                             : en:7
01:25:24.907                             : en:8
01:37:28.997                             : en:9
01:50:08.997                             : en:10
02:01:27.997                             : en:11
02:12:00.287                             : en:12
02:26:42.997                             : en:13



Скриншоты:
[+] Всего файлов в раздаче - 1:
The.House.That.Jack.Built.2018.WEB-DLRip(AVC).OlLanDGroup.mkv2.89 GB

Показать еще раздачи по запросу который:
2019-03-05 U Дом, который построил Джек / The House That Jack Built (2018) BDRip-AVC от OlLanDGroup | iTunes 2.25 GB ↑ 76 ↓ 14
2019-03-05 U Дом, который построил Джек / The House That Jack Built (2018) BDRip 720p от селезень | iTunes 5.88 GB ↑ 142 ↓ 87
2019-03-05 U Дом, который построил Джек / The House That Jack Built (2018) BDRip 1080p от селезень | iTunes 11.73 GB ↑ 213 ↓ 91
2019-03-05 U Дом, который построил Джек / The House That Jack Built (2018) BDRip от MegaPeer | iTunes 2.12 GB ↑ 66 ↓ 7
2019-03-05 U Дом, который построил Джек / The House That Jack Built (2018) BDRemux 1080p от селезень | iTunes 30.13 GB ↑ 71 ↓ 34
2019-03-05 U Дом, который построил Джек / The House That Jack Built (2018) BDRip от MegaPeer | iTunes 1.46 GB ↑ 82 ↓ 25
2019-03-03 U Дом, который построил Джек / The House That Jack Built (2018) WEB-DLRip от Scarabey | iTunes 2.18 GB ↑ 54 ↓ 14

Отзывы
Зарегистрируйтесь чтобы добавить комментарий.
Обратная связь
Copyleft ©