↑↓Torrent.by
Поиск
Логин: Регистрация
Пароль: Восстановить пароль
Загрузка...

Султан моего сердца / Kalbimin Sultanı [01-06 из 24] (2018) HDTVRip от GeneralFilm l Первый канал

Скачать sultan-moego-serdca-kalbimin-01-06-iz-24-2018-hdtvrip-ot-generalfilm-l-pervyy-kanal.torrent
U Магнитная ссылка Размер: 3.89 GB Раздают: 123 Качают: 110 Добавлен: 2019-01-11 15:38:58
Султан моего сердца  / Kalbimin Sultanı [01-06 из 24] (2018) HDTVRip от GeneralFilm l Первый канал

Оригинальное название: Kalbimin Sultanı
Год выпуска: 2018
Жанр:  Историческая мелодрама
Выпущено: Россия, Турция, Киностудия КИТ, Maya Productions, Global Connection International Media Group.
Режиссер: Керем Чакироглу
В ролях: Александра Никифорова, Али Эрсан Дуру, Эмель Чольгечен, Тансель Онгель, Дмитрий Щербина, Андрей Руденский, Александр Соколовский, Олеся Фаттахова, Илья Шакунов, Бесте Кёкдемир, Тунджер Салман, Танер Румели, Бюлент Сейран

О фильме: Стамбул, начало XIX века. Анна — дочь одного из чиновников, работающих в посольстве Российской империи. Она случайно знакомится с османским султаном Махмудом II. Впечатленный интеллектом и знаниями девушки, правитель приглашает ее работать учительницей его детей, но она поначалу отказывается и уступает только после того, как на нее начинает давить русский посол Дмитрий. Во время работы во дворце Анна понимает, что начинает влюбляться в Махмуда. Но она сталкивается с массой проблем, ведь дети султана не слушаются чужестранку, а обитательницы гарема воспринимают ее как соперницу. Этому есть причина: сам Махмуд тоже влюбляется в новую учительницу.

Качество: HDTVRip
Видео: XviD, ~ 1800 Кбит/с, 720x400
Аудио: Русский (AC3, 2 ch, 192 Кбит/с)
Продолжительность: 6 х ~ 00:50:00
Перевод: Профессиональный многоголосый / Первый  канал
Субтитры: нет

Релиз:


[+] MediaInfo

Общее
Полное имя                               : D:Sultan moego serdca.HDTVRip.GeneralFilm1.Sultan moego serdca.HDTVRip.GeneralFilm.avi
Формат                                   : AVI
Формат/Информация                        : Audio Video Interleave
Размер файла                             : 685 Мбайт
Продолжительность                        : 48 м. 35 с.
Общий поток                              : 1969 Кбит/сек

Видео
Идентификатор                            : 0
Формат                                   : MPEG-4 Visual
Профиль формата                          : Advanced Simple@L5
Параметр BVOP формата                    : 1
Параметр QPel формата                    : Нет
Параметр GMC формата                     : Без точки перехода
Параметр матрицы формата                 : Выборочная
Идентификатор кодека                     : XVID
Идентификатор кодека/Подсказка           : XviD
Продолжительность                        : 48 м. 35 с.
Битрейт                                  : 1766 Кбит/сек
Ширина                                   : 720 пикселей
Высота                                   : 400 пикселей
Соотношение сторон                       : 16:9
Частота кадров                           : 25,000 кадров/сек
Цветовое пространство                    : YUV
Субдискретизация насыщенности            : 4:2:0
Битовая глубина                          : 8 бит
Тип развёртки                            : Прогрессивная
Метод сжатия                             : С потерями
Бит/(Пиксели*Кадры)                      : 0.245
Размер потока                            : 614 Мбайт (90%)
Библиотека кодирования                   : XviD 1.2.1 (UTC 2008-12-04)

Аудио
Идентификатор                            : 1
Формат                                   : AC-3
Формат/Информация                        : Audio Coding 3
Расширение режима                        : CM (complete main)
Параметр Endianness формата              : Big
Идентификатор кодека                     : 2000
Продолжительность                        : 48 м. 35 с.
Вид битрейта                             : Постоянный
Битрейт                                  : 192 Кбит/сек
Каналы                                   : 2 канала
Расположение каналов                     : Front: L R
Частота                                  : 48,0 КГц
Частота кадров                           : 31,250 кадров/сек (1536 spf)
Битовая глубина                          : 16 бит
Метод сжатия                             : С потерями
Размер потока                            : 66,7 Мбайт (10%)
Выравнивание                             : Соединение по промежуткам
Продолжительность промежутка             : 32  мс. (0,80 видеокадр)

Общее
Полное имя                               : D:Sultan moego serdca.HDTVRip.GeneralFilm2.Sultan moego serdca.HDTVRip.GeneralFilm.avi
Формат                                   : AVI
Формат/Информация                        : Audio Video Interleave
Размер файла                             : 687 Мбайт
Продолжительность                        : 48 м. 12 с.
Общий поток                              : 1992 Кбит/сек
Программа кодирования                    : VirtualDubMod 1.5.10.3 | www.virtualdub-fr.org || (build 2550/release)
Библиотека кодирования                   : VirtualDubMod build 2550/release

Видео
Идентификатор                            : 0
Формат                                   : MPEG-4 Visual
Профиль формата                          : Advanced Simple@L5
Параметр BVOP формата                    : 1
Параметр QPel формата                    : Нет
Параметр GMC формата                     : Без точки перехода
Параметр матрицы формата                 : Выборочная
Идентификатор кодека                     : XVID
Идентификатор кодека/Подсказка           : XviD
Продолжительность                        : 48 м. 12 с.
Битрейт                                  : 1790 Кбит/сек
Ширина                                   : 720 пикселей
Высота                                   : 400 пикселей
Соотношение сторон                       : 16:9
Частота кадров                           : 25,000 кадров/сек
Цветовое пространство                    : YUV
Субдискретизация насыщенности            : 4:2:0
Битовая глубина                          : 8 бит
Тип развёртки                            : Прогрессивная
Метод сжатия                             : С потерями
Бит/(Пиксели*Кадры)                      : 0.249
Размер потока                            : 617 Мбайт (90%)
Библиотека кодирования                   : XviD 1.2.1 (UTC 2008-12-04)

Аудио
Идентификатор                            : 1
Формат                                   : AC-3
Формат/Информация                        : Audio Coding 3
Расширение режима                        : CM (complete main)
Параметр Endianness формата              : Big
Идентификатор кодека                     : 2000
Продолжительность                        : 48 м. 12 с.
Вид битрейта                             : Постоянный
Битрейт                                  : 192 Кбит/сек
Каналы                                   : 2 канала
Расположение каналов                     : Front: L R
Частота                                  : 48,0 КГц
Частота кадров                           : 31,250 кадров/сек (1536 spf)
Битовая глубина                          : 16 бит
Метод сжатия                             : С потерями
Размер потока                            : 66,2 Мбайт (10%)
Выравнивание                             : Разделение по промежуткам
Продолжительность промежутка             : 40  мс. (1,00 видеокадр)
Время предзагрузки промежутка            : 500  мс.

Общее
Полное имя                               : D:Sultan moego serdca.HDTVRip.GeneralFilmSultan moego serdca.HDTVRip.GeneralFilm.torrent
Размер файла                             : 16,3 Кбайт




Скриншоты:
[+] Всего файлов в раздаче - 6:
06.Sultan moego serdca.HDTVRip.GeneralFilm.avi641.08 MB
05.Sultan moego serdca.HDTVRip.GeneralFilm.avi673.34 MB
04.Sultan moego serdca.HDTVRip.GeneralFilm.avi629.50 MB
03.Sultan moego serdca.HDTVRip.GeneralFilm.avi668.07 MB
02.Sultan moego serdca.HDTVRip.GeneralFilm.avi686.66 MB
01.Sultan moego serdca.HDTVRip.GeneralFilm.avi684.54 MB

Текущая раздача:
ДатаКомментарии    РазмерПиры
2019-01-11 U Султан моего сердца / Kalbimin Sultanı [01-06 из 24] (2018) HDTVRip от GeneralFilm l Первый канал 3.89 GB ↑ 123 ↓ 110

Показать еще раздачи по запросу султан:
Вчера U Султан моего сердца / Kalbimin Sultanı [01-20 из 24] (2018) SATRip-AVC 12.29 GB ↑ 0 ↓ 3
2019-01-11 U Султан моего сердца / Kalbimin Sultanı [01-08 из 24] (2018) HDTVRip от GeneralFilm l Первый канал 5.16 GB ↑ 169 ↓ 136
2019-01-10 U Султан моего сердца / Kalbimin Sultanı [01-04 из 24] (2018) HDTVRip от GeneralFilm l Первый канал 1К2.61 GB ↑ 53 ↓ 35
2019-01-09 U Султан моего сердца / Kalbimin Sultanı [01-02 из 24] (2018) HDTVRip 720p от GeneralFilm l Первый канал 2.50 GB ↑ 48 ↓ 27
2019-01-09 U Султан моего сердца / Kalbimin Sultanı [01-02 из 24] (2018) HDTVRip от GeneralFilm l Первый канал 1.34 GB ↑ 63 ↓ 16
2016-08-26 U Султан / Sultan (2016) WEB-DLRip 720p | L2 2К1.65 GB ↑ 205 ↓ 71
2014-04-03 U Султан Бейбарс (1989) DVDRip 1К1.91 GB ↑ 111 ↓ 49

Отзывы
Зарегистрируйтесь чтобы добавить комментарий.
Обратная связь
Copyleft ©