↑↓Torrent.by
Поиск
Логин: Регистрация
Пароль: Восстановить пароль
Загрузка...

Смолфут / Smallfoot (2018) BDRip 720p от селезень | Лицензия

Скачать smolfut-smallfoot-2018-bdrip-720p-ot-selezen-licenziya.torrent
U Магнитная ссылка Размер: 4.56 GB Раздают: 179 Качают: 91 Добавлен: 2019-01-11 18:50:53
Смолфут / Smallfoot (2018) BDRip 720p от селезень | Лицензия

Название: Смолфут
Оригинальное название: Smallfoot
Год выхода: 2018
Жанр: Мультфильм, мюзикл, фэнтези, комедия, приключения, семейный, полнометражный
Режиссер: Кэри Киркпатрик, Джейсон Рейсиг
В ролях: Ченнинг Татум, Джеймс Корден, Зендая Колеман, Коммон, Леброн Джеймс, Дэнни ДеВито, Джина Родригез, Яра Шахиди, Эли Генри, Джимми Татро

О фильме: Молодой находчивый йети сталкивается с тем, кого, по его глубокому убеждению, не существует — человеком. Новости о «смолфуте» приносят ему славу и шанс завоевать девушку его мечты. А ещё — вызывают переполох среди простых йети, которые теперь гадают, кто же ещё обитает в большом мире за пределами их маленькой заснеженной деревушки.

Страна: США
Студия: Warner Animation Group, Warner Bros., Zaftig Films
Продолжительность: 01:36:17
Перевод: Дублированный | Лицензия

Качество: BDRip 720p
Видео: MPEG-4 AVC, 1280x534, 4500 Kbit/s, 23.976 fps
Звук:
Аудио #01: 48 kHz, AC3, 5.1, 640 Kbps | Дублированный | RUS |
Аудио #02: 48 kHz, AAC, 2.0, 126 Kbps | Дублированный | UKR |
Аудио #03: 48 kHz, DTS, 5.1, 1510 Kbps | Оригинал |  ENG |
Субтитры: Русские (Forced, full), украинские (Forced), английские

Релиз:


[+] MI
General
Unique ID                   : 62682349793344235028607785663413012985 (0x2F282E733091A1CC04BBCCF9231EC9F9)
Complete name               : D:Video111Smallfoot.2018.Lic.BDRip.720p.seleZen.mkv
Format                      : Matroska
Format version              : Version 4
File size                   : 4.56 GiB
Duration                    : 1 h 36 min
Overall bit rate            : 6 780 kb/s
Movie name                  : Smallfoot 2018 from селезень
Encoded date                : UTC 2019-01-10 20:10:55
Writing application         : mkvmerge v29.0.0 ('Like It Or Not') 64-bit
Writing library             : libebml v1.3.6 + libmatroska v1.4.9

Video
ID                          : 1
Format                      : AVC
Format/Info                 : Advanced Video Codec
Format profile              : High@L4.1
Format settings             : CABAC / 12 Ref Frames
Format settings, CABAC      : Yes
Format settings, ReFrames   : 12 frames
Codec ID                    : V_MPEG4/ISO/AVC
Duration                    : 1 h 36 min
Bit rate                    : 4 500 kb/s
Width                       : 1 280 pixels
Height                      : 534 pixels
Display aspect ratio        : 2.40:1
Frame rate mode             : Constant
Frame rate                  : 23.976 (24000/1001) FPS
Color space                 : YUV
Chroma subsampling          : 4:2:0
Bit depth                   : 8 bits
Scan type                   : Progressive
Bits/(Pixel*Frame)          : 0.275
Stream size                 : 3.03 GiB (66%)
Title                       : seleZen
Writing library             : x264 core 148 r2705kMod 3f5ed56
Encoding settings           : cabac=1 / ref=12 / deblock=1:-2:-2 / analyse=0x3:0x133 / me=umh / subme=11 / psy=1 / fade_compensate=0.00 / psy_rd=1.04:0.04 / mixed_ref=1 / me_range=48 / chroma_me=1 / trellis=2 / 8x8dct=1 / cqm=0 / deadzone=21,11 / fast_pskip=0 / chroma_qp_offset=-3 / threads=12 / lookahead_threads=2 / sliced_threads=0 / nr=0 / decimate=0 / interlaced=0 / bluray_compat=0 / constrained_intra=0 / fgo=0 / bframes=8 / b_pyramid=2 / b_adapt=2 / b_bias=0 / direct=3 / weightb=1 / open_gop=0 / weightp=2 / keyint=240 / keyint_min=23 / scenecut=40 / intra_refresh=0 / rc_lookahead=50 / rc=2pass / mbtree=0 / bitrate=4500 / ratetol=1.0 / qcomp=0.60 / qpmin=0 / qpmax=51 / qpstep=4 / cplxblur=20.0 / qblur=0.5 / vbv_maxrate=50000 / vbv_bufsize=62500 / nal_hrd=none / filler=0 / ip_ratio=1.40 / pb_ratio=1.30 / aq=3:0.80
Language                    : English
Default                     : Yes
Forced                      : No

Audio #1
ID                          : 2
Format                      : AC-3
Format/Info                 : Audio Coding 3
Commercial name             : Dolby Digital
Codec ID                    : A_AC3
Duration                    : 1 h 36 min
Bit rate mode               : Constant
Bit rate                    : 640 kb/s
Channel(s)                  : 6 channels
Channel layout              : L R C LFE Ls Rs
Sampling rate               : 48.0 kHz
Frame rate                  : 31.250 FPS (1536 SPF)
Bit depth                   : 16 bits
Compression mode            : Lossy
Stream size                 : 441 MiB (9%)
Title                       : Dub [License]
Language                    : Russian
Service kind                : Complete Main
Default                     : Yes
Forced                      : Yes

Audio #2
ID                          : 3
Format                      : AAC LC
Format/Info                 : Advanced Audio Codec Low Complexity
Codec ID                    : A_AAC-2
Duration                    : 1 h 36 min
Bit rate                    : 126 kb/s
Channel(s)                  : 2 channels
Channel layout              : L R
Sampling rate               : 48.0 kHz
Frame rate                  : 46.875 FPS (1024 SPF)
Compression mode            : Lossy
Stream size                 : 87.0 MiB (2%)
Title                       : iTunes
Language                    : Ukrainian
Default                     : No
Forced                      : No

Audio #3
ID                          : 4
Format                      : DTS
Format/Info                 : Digital Theater Systems
Codec ID                    : A_DTS
Duration                    : 1 h 36 min
Bit rate mode               : Constant
Bit rate                    : 1 509 kb/s
Channel(s)                  : 6 channels
Channel layout              : C L R Ls Rs LFE
Sampling rate               : 48.0 kHz
Frame rate                  : 93.750 FPS (512 SPF)
Bit depth                   : 24 bits
Compression mode            : Lossy
Stream size                 : 1.01 GiB (22%)
Title                       : Original
Language                    : English
Default                     : No
Forced                      : No

Text #1
ID                          : 5
Format                      : UTF-8
Codec ID                    : S_TEXT/UTF8
Codec ID/Info               : UTF-8 Plain Text
Duration                    : 55 min 58 s
Bit rate                    : 1 b/s
Count of elements           : 19
Stream size                 : 729 Bytes (0%)
Title                       : Forced
Language                    : Russian
Default                     : Yes
Forced                      : Yes

Text #2
ID                          : 6
Format                      : UTF-8
Codec ID                    : S_TEXT/UTF8
Codec ID/Info               : UTF-8 Plain Text
Duration                    : 1 h 35 min
Bit rate                    : 108 b/s
Count of elements           : 1500
Stream size                 : 76.0 KiB (0%)
Title                       : Full
Language                    : Russian
Default                     : No
Forced                      : No

Text #3
ID                          : 7
Format                      : UTF-8
Codec ID                    : S_TEXT/UTF8
Codec ID/Info               : UTF-8 Plain Text
Duration                    : 55 min 59 s
Bit rate                    : 1 b/s
Count of elements           : 19
Stream size                 : 750 Bytes (0%)
Title                       : Forced
Language                    : Ukrainian
Default                     : No
Forced                      : No

Text #4
ID                          : 8
Format                      : UTF-8
Codec ID                    : S_TEXT/UTF8
Codec ID/Info               : UTF-8 Plain Text
Duration                    : 1 h 30 min
Bit rate                    : 75 b/s
Count of elements           : 1774
Stream size                 : 50.2 KiB (0%)
Title                       : Full
Language                    : English
Default                     : No
Forced                      : No

Text #5
ID                          : 9
Format                      : UTF-8
Codec ID                    : S_TEXT/UTF8
Codec ID/Info               : UTF-8 Plain Text
Duration                    : 1 h 30 min
Bit rate                    : 88 b/s
Count of elements           : 2098
Stream size                 : 58.6 KiB (0%)
Title                       : SDH
Language                    : English
Default                     : No
Forced                      : No

Menu
00:00:00.000                : :Chapter 01
00:09:56.262                : :Chapter 02
00:21:36.295                : :Chapter 03
00:32:10.637                : :Chapter 04
00:38:33.602                : :Chapter 05
00:49:59.705                : :Chapter 06
00:55:37.167                : :Chapter 07
01:01:53.209                : :Chapter 08
01:12:04.278                : :Chapter 09
01:18:26.076                : :Chapter 10
01:26:16.796                : :Chapter 11
01:31:12.300                : :Chapter 12



Скриншоты:
[+] Всего файлов в раздаче - 1:
Smallfoot.2018.Lic.BDRip.720p.seleZen.mkv4.56 GB

Текущая раздача:
ДатаКомментарии    РазмерПиры
2019-01-11 U Смолфут / Smallfoot (2018) BDRip 720p от селезень | Лицензия 1 К 4.56 GB ↑ 179 ↓ 91

Показать еще раздачи по запросу смолфут:
2019-01-13 U Смолфут / Smallfoot (2018) BDRip 1080p от qqss44 & MegaPeer | Лицензия 5.70 GB ↑ 68 ↓ 11
2019-01-12 U Смолфут / Smallfoot (2018) BDRip-AVC от ExKinoRay | Лицензия 2.05 GB ↑ 79 ↓ 9
2019-01-12 U Смолфут / Smallfoot (2018) BDRip от ExKinoRay | Лицензия 1.46 GB ↑ 67 ↓ 11
2019-01-12 U Смолфут / Smallfoot (2018) BDRip-HEVC 1080p от M@kSIMus | Лицензия 6.28 GB ↑ 63 ↓ 11
2019-01-11 U Смолфут / Smallfoot (2018) BDRip от MegaPeer | Лицензия 1.46 GB ↑ 157 ↓ 88
2019-01-09 U Смолфут / Smallfoot (2018) BDRip 720p от HELLYWOOD | iTunes 3.66 GB ↑ 62 ↓ 14
2018-12-30 U Смолфут / Smallfoot (2018) HDRip от Scarabey | iTunes 1.40 GB ↑ 79 ↓ 26

Отзывы
vitalby
Зачёт и взрослого улыбнёт ещё бы не пели )

Зарегистрируйтесь чтобы добавить комментарий.
Обратная связь
Copyleft ©