↑↓Torrent.by
Поиск
Логин: Регистрация
Пароль: Восстановить пароль
Загрузка...

Расправа / Reprisal (2018) BDRip 720p | iTunes

Скачать rasprava-reprisal-2018-bdrip-720p-itunes.torrent
U Магнитная ссылка Размер: 5.28 GB Раздают: 84 Качают: 20 Добавлен: 2019-01-12 04:54:54
Расправа / Reprisal (2018)  BDRip 720p | iTunes

Название: Расправа
Оригинальное название: Reprisal
Год выпуска: 2018
Жанр:  Боевик, триллер, криминал
Режиссер: Брайан А Миллер
В ролях: Брюс Уиллис, Фрэнк Грилло, Джонатон Шек, Оливия Калпо, Натали Юра, Дядя Мурда, Наталья Софи Батлер, Тайлер Джон Олсон, Уасс М. Стивенс, Колин Эглсфилд

О фильме:
Джейкоб, управляющий банком, оказывается взятым в заложники вместе с другими сотрудниками. Преступник, действующий в одиночку, забрал деньги и улизнул. ФБР подозревает Джейкоба в соучастии, так как преступник знал расположение банка и систему хранилища. Чтобы обелить своё имя, Джейкоб начинает собственные поиски преступника. Помогает ему с этом Джеймс — сосед, полицейский на пенсии.

Страна: США, Великобритания
Студия: Emmett/Furla/Oasis Films (EFO Films), Ingenious Media, Kind Hearts Entertainment
Продолжительность: 01:29:10
Перевод: Дублированный [iTunes]

Файл
Кодек: MPEG-4 AVC
Качество: BDRip 720p
Видео: 7590 Кбит/с, 1280x696
Звук: Русский (AC3, 6 ch, 384 Кбит/с)

Без Рекламы

Релиз:


[+] MI

General
Unique ID                   : 176490966144765198523295446945530869914 (0x84C6EC750F868BD0B9BD2DEDC463789A)
Complete name               : D:Расправа.2018.BDRip (720p).Kinozal-Reliz.mkv
Format                      : Matroska
Format version              : Version 2
File size                   : 5.28 GiB
Duration                    : 1 h 34 min
Overall bit rate            : 7 970 kb/s
Encoded date                : UTC 2019-01-10 03:20:20
Writing application         : mkvmerge v7.8.0 ('River Man') 32bit built on Apr  3 2015 12:11:22
Writing library             : libebml v1.3.1 + libmatroska v1.4.2

Video
ID                          : 1
Format                      : AVC
Format/Info                 : Advanced Video Codec
Format profile              : High@L4.1
Format settings             : CABAC / 9 Ref Frames
Format settings, CABAC      : Yes
Format settings, ReFrames   : 9 frames
Codec ID                    : V_MPEG4/ISO/AVC
Duration                    : 1 h 34 min
Bit rate                    : 7 590 kb/s
Width                       : 1 280 pixels
Height                      : 696 pixels
Display aspect ratio        : 1.85:1
Frame rate mode             : Constant
Frame rate                  : 23.976 FPS
Color space                 : YUV
Chroma subsampling          : 4:2:0
Bit depth                   : 8 bits
Scan type                   : Progressive
Bits/(Pixel*Frame)          : 0.355
Stream size                 : 4.92 GiB (93%)
Writing library             : x264 core 146 r2538 121396c
Encoding settings           : cabac=1 / ref=9 / deblock=1:0:0 / analyse=0x3:0x111 / me=umh / subme=9 / psy=1 / psy_rd=1.00:0.10 / mixed_ref=1 / me_range=32 / chroma_me=1 / trellis=2 / 8x8dct=1 / cqm=0 / deadzone=21,11 / fast_pskip=0 / chroma_qp_offset=-3 / threads=6 / lookahead_threads=1 / sliced_threads=0 / nr=0 / decimate=1 / interlaced=0 / bluray_compat=0 / constrained_intra=0 / bframes=3 / b_pyramid=2 / b_adapt=2 / b_bias=0 / direct=3 / weightb=1 / open_gop=0 / weightp=2 / keyint=250 / keyint_min=23 / scenecut=40 / intra_refresh=0 / rc_lookahead=50 / rc=2pass / mbtree=1 / bitrate=7590 / ratetol=1.0 / qcomp=0.60 / qpmin=0 / qpmax=69 / qpstep=4 / cplxblur=20.0 / qblur=0.5 / ip_ratio=1.40 / aq=1:1.00
Default                     : Yes
Forced                      : No

Audio
ID                          : 2
Format                      : AC-3
Format/Info                 : Audio Coding 3
Commercial name             : Dolby Digital
Codec ID                    : A_AC3
Duration                    : 1 h 34 min
Bit rate mode               : Constant
Bit rate                    : 384 kb/s
Channel(s)                  : 6 channels
Channel layout              : L R C LFE Ls Rs
Sampling rate               : 48.0 kHz
Frame rate                  : 31.250 FPS (1536 SPF)
Bit depth                   : 16 bits
Compression mode            : Lossy
Stream size                 : 260 MiB (5%)
Service kind                : Complete Main
Default                     : Yes
Forced                      : No



Скриншоты:
[+] Всего файлов в раздаче - 1:
Расправа.2018.BDRip (720p).Kinozal-Reliz.mkv5.28 GB

Текущая раздача:
ДатаКомментарии    РазмерПиры
2019-01-12 U Расправа / Reprisal (2018) BDRip 720p | iTunes 5.28 GB ↑ 84 ↓ 20

Показать еще раздачи по запросу расправа:
2018-12-25 U Расправа / Reprisal (2018) BDRip-AVC от OlLanDGroup | iTunes 2.00 GB ↑ 99 ↓ 37
2018-12-25 U Расправа / Reprisal (2018) BDRip от ExKinoRay | iTunes 1.42 GB ↑ 110 ↓ 16
2018-12-24 U Расправа / Reprisal (2018) BDRip 1080p от селезень | iTunes 2К8.20 GB ↑ 202 ↓ 217
2018-12-24 U Расправа / Reprisal (2018) BDRemux 1080p от селезень | iTunes 18.76 GB ↑ 68 ↓ 57
2018-12-24 U Расправа / Reprisal (2018) BDRip от MegaPeer | iTunes 1.42 GB ↑ 229 ↓ 104
2018-11-02 U Расправа / Reprisal (2018) BDRip 1080p | HDrezka Studio 8.05 GB ↑ 61 ↓ 20
2018-10-19 U Расправа / Reprisal (2018) BDRip от ExKinoRay | HDrezka Studio 1.46 GB ↑ 180 ↓ 37

Отзывы
Зарегистрируйтесь чтобы добавить комментарий.
Обратная связь
Copyleft ©