↑↓Torrent.by
Поиск
Логин: Регистрация
Пароль: Восстановить пароль
Загрузка...

Хантер Киллер / Hunter Killer (2018) WEBRip-AVC | HDrezka Studio

Скачать hanter-killer-hunter-2018-webrip-avc-hdrezka-studio.torrent
U Магнитная ссылка Размер: 1.65 GB Раздают: 90 Качают: 28 Добавлен: 2019-01-12 04:54:58
Хантер Киллер / Hunter Killer (2018) WEBRip-AVC | HDrezka Studio

Название: Хантер Киллер
Оригинальное название: Hunter Killer
Год выхода: 2018
Жанр:  боевик, триллер
Режиссер: Донован Марш / Donovan Marsh
В ролях: Джерард Батлер, Гари Олдман, Микаэл Нюквист, Коммон, Юрий Колокольников, Михаил Горевой, Игорь Жижикин, Александр Дьяченко, Зейн Холц, Кори Джонсон, Тоби Стивенс, Линда Карделлини, Этан Бейрд, Джейкоб Скипио, Демпси Бовелл, Колин Стинтон

О фильме:
Американская атомная подлодка «Хантер Киллер» вместе с подразделением военно-морских сил США вступает в крайне рискованную боевую авантюру по спасению мира от катастрофы. Когда время на исходе и каждая минута на счету, элитной команде придется совершить невозможное, чтобы предотвратить конфликт мирового масштаба.

Страна: США
Производство: Original Film, Millennium Films
Продолжительность: 02:00:54
Перевод: Профессиональный (многоголосый закадровый) HDrezka Studio
Субтитры: нет
Реклама: Отсутствует

Файл
Качество: WEBRip-AVC
Видео: 1018x424 , 25 fps, x264, ~1563 kbps
Аудио #1: 48 kHz, AC3 Dolby Digital, 2/0 (L,R) ch, ~192 kbps avg (RUS)
Аудио #2: 48 kHz, AC3 Dolby Digital, 2/0 (L,R) ch, ~192 kbps avg (ENG)


[+] M/I
x264 info: frame I:1855  Avg QP:14.49  size: 35504
x264 info: frame P:47703 Avg QP:15.95  size: 15265
x264 info: frame B:131812 Avg QP:17.60  size:  4729
x264 info: consecutive B-frames:  3.7%  4.9%  8.5% 52.6% 10.8% 14.9%  2.6%  1.4%  0.2%  0.2%  0.3%

General
Unique ID                   : 76056565742469496276477016258027044028 (0x3937F634CB2F89BC80A5B5A1D699BCBC)
Complete name               : Хантер Киллер_2018_WEBRip-AVC_[-=DoMiNo=-].mkv
Format                      : Matroska
Format version              : Version 4
File size                   : 1.65 GiB
Duration                    : 2 h 0 min
Overall bit rate            : 1 949 kb/s
Movie name                  : Хантер Киллер
Deion                 : Американское морское спецподразделение «Охотник-убийца» вступает в очередную опасную боевую авантюру по спасению мира от катастрофы.
Encoded date                : UTC 2019-01-11 18:00:32
Writing application         : mkvmerge v30.1.0 ('Forever And More') 64-bit
Writing library             : libebml v1.3.6 + libmatroska v1.4.9
Attachments                 : poster.jpg / backdrop.jpg
ACTORS                      : Gerard Butler, Common, Michael Nyqvist, Mikhail Gorevoy, Gary Oldman, Toby Stephens, Zane Holtz, Linda Cardellini, Ryan McPartlin, Michael Trucco, Caroline Goodall, David Gyasi, Gabriel Chavarria, Carter MacIntyre, Taylor John Smith, Henry Goodman, Colin Stinton, Shane Taylor, Will Attenborough, Christopher Goh, Sarah Middleton, Adam James
COUNTRY                     : China, United Kingdom, United States
DATE                        : 2018-10-19
DIRECTOR                    : Donovan Marsh
GENRE                       :  [url=/tag/1/боевик]боевик, триллер[/url]
ITUNEXTC                    : ru-movie|18+|400|
ORIGINAL_TITLE              : Hunter Killer
PUBLISHER                   : Original Film, G-BASE, Millennium Films, Hunter Killer Productions, Hishow Entertainment, SprocketHeads, Tucker Tooley Entertainment
RATING                      : 5.70
WRITER                      : Peter Craig, Jamie Moss, Arne Schmidt

Video
ID                          : 1
Format                      : AVC
Format/Info                 : Advanced Video Codec
Format profile              : High@L4.1
Format settings             : CABAC / 10 Ref Frames
Format settings, CABAC      : Yes
Format settings, ReFrames   : 10 frames
Codec ID                    : V_MPEG4/ISO/AVC
Duration                    : 2 h 0 min
Bit rate                    : 1 563 kb/s
Width                       : 1 018 pixels
Height                      : 424 pixels
Display aspect ratio        : 2.40:1
Frame rate mode             : Constant
Frame rate                  : 25.000 FPS
Color space                 : YUV
Chroma subsampling          : 4:2:0
Bit depth                   : 8 bits
Scan type                   : Progressive
Bits/(Pixel*Frame)          : 0.145
Stream size                 : 1.32 GiB (80%)
Title                       : RIP_BY_-=DoMiNo=-
Writing library             : x264 core 157 r2935 545de2f
Encoding settings           : cabac=1 / ref=10 / deblock=1:-2:-2 / analyse=0x3:0x133 / me=umh / subme=10 / psy=1 / psy_rd=0.98:0.00 / mixed_ref=1 / me_range=32 / chroma_me=1 / trellis=2 / 8x8dct=1 / cqm=0 / deadzone=21,11 / fast_pskip=1 / chroma_qp_offset=-2 / threads=6 / lookahead_threads=1 / sliced_threads=0 / nr=0 / decimate=1 / interlaced=0 / bluray_compat=0 / constrained_intra=0 / bframes=10 / b_pyramid=2 / b_adapt=2 / b_bias=0 / direct=1 / weightb=1 / open_gop=0 / weightp=2 / keyint=250 / keyint_min=25 / scenecut=40 / intra_refresh=0 / rc=crf / mbtree=0 / crf=18.0 / qcomp=0.70 / qpmin=0 / qpmax=69 / qpstep=4 / ip_ratio=1.40 / pb_ratio=1.30 / aq=1:1.00
Language                    : English
Default                     : Yes
Forced                      : No
Color range                 : Limited
Color primaries             : BT.709
Transfer characteristics    : BT.709
Matrix coefficients         : BT.709

Audio #1
ID                          : 2
Format                      : AC-3
Format/Info                 : Audio Coding 3
Commercial name             : Dolby Digital
Codec ID                    : A_AC3
Duration                    : 2 h 0 min
Bit rate mode               : Constant
Bit rate                    : 192 kb/s
Channel(s)                  : 2 channels
Channel layout              : L R
Sampling rate               : 48.0 kHz
Frame rate                  : 31.250 FPS (1536 SPF)
Bit depth                   : 16 bits
Compression mode            : Lossy
Stream size                 : 166 MiB (10%)
Title                       : MVO - HDrezka Studio
Language                    : Russian
Service kind                : Complete Main
Default                     : Yes
Forced                      : No

Audio #2
ID                          : 3
Format                      : AC-3
Format/Info                 : Audio Coding 3
Commercial name             : Dolby Digital
Codec ID                    : A_AC3
Duration                    : 2 h 0 min
Bit rate mode               : Constant
Bit rate                    : 192 kb/s
Channel(s)                  : 2 channels
Channel layout              : L R
Sampling rate               : 48.0 kHz
Frame rate                  : 31.250 FPS (1536 SPF)
Bit depth                   : 16 bits
Compression mode            : Lossy
Stream size                 : 166 MiB (10%)
Title                       : Original
Language                    : English
Service kind                : Complete Main
Default                     : No
Forced                      : No



Скриншоты:
[+] Всего файлов в раздаче - 1:
Хантер Киллер_2018_WEBRip-AVC_[-=DoMiNo=-].mkv1.65 GB

Текущая раздача:
ДатаКомментарии    РазмерПиры
2019-01-12 U Хантер Киллер / Hunter Killer (2018) WEBRip-AVC | HDrezka Studio 1 К 1.65 GB ↑ 90 ↓ 28

Показать еще раздачи по запросу хантер:
Сегодня U Хантер Киллер / Hunter Killer (2018) BDRip 1080p от селезень | iTunes 14.94 GB ↑ 25 ↓ 31
Вчера U Хантер Киллер / Hunter Killer (2018) HDRip | iTunes 2.14 GB ↑ 55 ↓ 17
2019-01-21 U Хантер Киллер / Hunter Killer (2018) HDRip от MegaPeer | iTunes 748.54 MB ↑ 68 ↓ 5
2019-01-20 U Хантер Киллер / Hunter Killer (2018) HDRip от Scarabey | iTunes 1.39 GB ↑ 18 ↓ 50
2019-01-20 U Хантер Киллер / Hunter Killer (2018) BDRip 720p от селезень | iTunes 1К4.01 GB ↑ 80 ↓ 23
2019-01-16 U Хантер Киллер / Hunter Killer (2018) WEB-DLRip-AVC от OlLanDGroup | iTunes 2.03 GB ↑ 116 ↓ 24
2019-01-15 U Хантер Киллер / Hunter Killer (2018) WEB-DLRip-AVC от ExKinoRay | iTunes 1.45 GB ↑ 164 ↓ 76

Отзывы
yurka71 Оценка: 3
Опять всё те же замыленные корейские субтитры... а то нет, нет

Зарегистрируйтесь чтобы добавить комментарий.
Обратная связь
Copyleft ©