↑↓Torrent.by
Поиск
Логин: Регистрация
Пароль: Восстановить пароль
Загрузка...

Анон / Anon (2018) BDRip-AVC от ExKinoRay | Лицензия, P

Скачать anon-2018-bdrip-avc-ot-exkinoray-licenziya-p.torrent
U Магнитная ссылка Размер: 1.84 GB Раздают: 76 Качают: 27 Добавлен: 2019-01-12 13:55:53
Анон / Anon (2018) BDRip-AVC от ExKinoRay | Лицензия, P

Название: Анон
Оригинальное название: Anon
Год выпуска: 2018
Жанр:  Фантастика, триллер
Выпущено: Германия, США, K5 Film, K5 International, K5 Media Group
Режиссер: Эндрю Никкол
В ролях: Клайв Оуэн, Аманда Сайфред, Колм Фиор, Соня Уолгер, Марк О’Брайэн, Джо Пинг, Иддо Голдберг, Себастьян Пижотт, Рэйчел Робертс (I), Этан Таварес

О фильме: Идеальное общество будущего: режим тотального надзора, отсутствие личной жизни, приватных территорий и гражданских прав. Казалось бы, в полностью контролируемом государстве нет места ошибкам и правонарушениям. Но однажды детектив Сол Фриленд знакомится с девушкой, которая не числится в базах данных. Перед копом приоткрывается дверь преступного мира новой эры…

Продолжительность: 01:39:50
Перевод:
#1: Дублированный | Лицензия
#2: Профессиональный многоголосый | HDRezka Studio
Субтитры: Русские (форсированные, полные), английские

Формат: MKV
Качество: BDRip-AVC
Видео: MPEG-4 AVC, 1024x552 (1.85:1), 23.976 fps, 1550 Kbps, 0.114 bit/pixel
Аудио #01: 48 kHz, AC3, 5.1, 448 Kbps | Лицензия | RUS |
Аудио #02: 48 kHz, AC3, 2.0, 192 Kbps | HDRezka Studio | RUS |
Аудио #03: 48 kHz, AC3, 5.1, 448 Kbps | Оригинал |  ENG |

Релиз:

Автор релиза:


[+] MI

x264 [info]: frame I:50    Avg QP:11.28  size: 45606
x264 [info]: frame P:449   Avg QP:14.51  size: 19781
x264 [info]: frame B:2002  Avg QP:15.14  size:  4149
---------------------------------------------------------------------------

General
Unique ID                                : 216409937397875445893456374870210056805 (0xA2CF09B1D508FBBBA7A685B0FE3D1265)
Complete name                            : D:Anon.2018.2xRus.BDRip.AVC.ExKinoRay.mkv
Format                                   : Matroska
Format version                           : Version 2
File size                                : 1.84 GiB
Duration                                 : 1 h 39 min
Overall bit rate                         : 2 632 kb/s
Movie name                               : Anon 2018 from ExKinoRay
Encoded date                             : UTC 2019-01-11 20:59:59
Writing application                      : mkvmerge v5.6.0 ('Kenya Kane') built on May 27 2012 16:44:04
Writing library                          : libebml v1.2.3 + libmatroska v1.3.0

Video
ID                                       : 1
Format                                   : AVC
Format/Info                              : Advanced Video Codec
Format profile                           : High@L4.1
Format settings, CABAC                   : Yes
Format settings, ReFrames                : 12 frames
Codec ID                                 : V_MPEG4/ISO/AVC
Duration                                 : 1 h 39 min
Bit rate                                 : 1 550 kb/s
Width                                    : 1 024 pixels
Height                                   : 552 pixels
Display aspect ratio                     : 1.85:1
Frame rate mode                          : Constant
Frame rate                               : 23.976 (24000/1001) FPS
Color space                              : YUV
Chroma subsampling                       : 4:2:0
Bit depth                                : 8 bits
Scan type                                : Progressive
Bits/(Pixel*Frame)                       : 0.114
Stream size                              : 1.04 GiB (57%)
Writing library                          : x264 core 152 r2851 ba24899
Encoding settings                        : cabac=1 / ref=12 / deblock=1:-2:-2 / analyse=0x3:0x113 / me=umh / subme=10 / psy=1 / psy_rd=1.05:0.10 / mixed_ref=1 / me_range=32 / chroma_me=1 / trellis=2 / 8x8dct=1 / cqm=0 / deadzone=21,11 / fast_pskip=0 / chroma_qp_offset=-3 / threads=12 / lookahead_threads=3 / sliced_threads=0 / nr=0 / decimate=0 / interlaced=0 / bluray_compat=0 / constrained_intra=0 / bframes=10 / b_pyramid=2 / b_adapt=2 / b_bias=0 / direct=3 / weightb=1 / open_gop=0 / weightp=2 / keyint=240 / keyint_min=23 / scenecut=40 / intra_refresh=0 / rc=2pass / mbtree=0 / bitrate=1550 / ratetol=1.0 / qcomp=0.65 / qpmin=0 / qpmax=51 / qpstep=4 / cplxblur=20.0 / qblur=0.5 / ip_ratio=1.40 / pb_ratio=1.30 / aq=3:0.80
Language                                 : English
Default                                  : Yes
Forced                                   : No
Color range                              : Limited
Color primaries                          : BT.709
Transfer characteristics                 : BT.709
Matrix coefficients                      : BT.709

Audio #1
ID                                       : 2
Format                                   : AC-3
Format/Info                              : Audio Coding 3
Mode extension                           : CM (complete main)
Format settings, Endianness              : Big
Codec ID                                 : A_AC3
Duration                                 : 1 h 39 min
Bit rate mode                            : Constant
Bit rate                                 : 448 kb/s
Channel(s)                               : 6 channels
Channel positions                        : Front: L C R, Side: L R, LFE
Sampling rate                            : 48.0 kHz
Frame rate                               : 31.250 FPS (1536 spf)
Compression mode                         : Lossy
Stream size                              : 320 MiB (17%)
Title                                    : Dub (R5)
Language                                 : Russian
Default                                  : Yes
Forced                                   : No

Audio #2
ID                                       : 3
Format                                   : AC-3
Format/Info                              : Audio Coding 3
Mode extension                           : CM (complete main)
Format settings, Endianness              : Big
Codec ID                                 : A_AC3
Duration                                 : 1 h 39 min
Bit rate mode                            : Constant
Bit rate                                 : 192 kb/s
Channel(s)                               : 2 channels
Channel positions                        : Front: L R
Sampling rate                            : 48.0 kHz
Frame rate                               : 31.250 FPS (1536 spf)
Compression mode                         : Lossy
Stream size                              : 137 MiB (7%)
Title                                    : MVO (HDRezka)
Language                                 : Russian
Default                                  : No
Forced                                   : No

Audio #3
ID                                       : 4
Format                                   : AC-3
Format/Info                              : Audio Coding 3
Mode extension                           : CM (complete main)
Format settings, Endianness              : Big
Codec ID                                 : A_AC3
Duration                                 : 1 h 39 min
Bit rate mode                            : Constant
Bit rate                                 : 448 kb/s
Channel(s)                               : 6 channels
Channel positions                        : Front: L C R, Side: L R, LFE
Sampling rate                            : 48.0 kHz
Frame rate                               : 31.250 FPS (1536 spf)
Compression mode                         : Lossy
Stream size                              : 320 MiB (17%)
Language                                 : English
Default                                  : No
Forced                                   : No

Text #1
ID                                       : 5
Format                                   : UTF-8
Codec ID                                 : S_TEXT/UTF8
Codec ID/Info                            : UTF-8 Plain Text
Title                                    : Forced
Language                                 : Russian
Default                                  : Yes
Forced                                   : No

Text #2
ID                                       : 6
Format                                   : UTF-8
Codec ID                                 : S_TEXT/UTF8
Codec ID/Info                            : UTF-8 Plain Text
Title                                    : Full
Language                                 : Russian
Default                                  : No
Forced                                   : No

Text #3
ID                                       : 7
Format                                   : UTF-8
Codec ID                                 : S_TEXT/UTF8
Codec ID/Info                            : UTF-8 Plain Text
Language                                 : English
Default                                  : No
Forced                                   : No

Menu
00:00:00.000                             : :Chapter 01
00:21:58.900                             : :Chapter 02
00:31:47.614                             : :Chapter 03
00:41:29.277                             : :Chapter 04
01:01:34.523                             : :Chapter 05
01:14:49.818                             : :Chapter 06
01:22:25.774                             : :Chapter 07
01:32:05.853                             : :Chapter 08




Скриншоты:
[+] Всего файлов в раздаче - 1:
Anon.2018.2xRus.BDRip.AVC.ExKinoRay.mkv1.84 GB

Текущая раздача:
ДатаКомментарии    РазмерПиры
2019-01-12 U Анон / Anon (2018) BDRip-AVC от ExKinoRay | Лицензия, P 1.84 GB ↑ 76 ↓ 27

Показать еще раздачи по запросу анон:
2019-01-14 U Анон / Anon (2018) HDRip от Scarabey | Лицензия 1.50 GB ↑ 37 ↓ 11
2019-01-13 U Анон / Anon (2018) BDRip от MegaPeer | Лицензия 745.16 MB ↑ 64 ↓ 3
2019-01-12 U Анон / Anon (2018) BDRip 720p от ExKinoRay | Лицензия, P 3.21 GB ↑ 252 ↓ 95
2019-01-12 U Анон / Anon (2018) BDRip-AVC от HELLYWOOD | Лицензия 1.46 GB ↑ 36 ↓ 19
2019-01-12 U Анон / Anon (2018) BDRip-AVC от HELLYWOOD | Лицензия 2К2.18 GB ↑ 53 ↓ 25
2019-01-12 U Анон / Anon (2018) BDRip 720p от HELLYWOOD | Лицензия 4.37 GB ↑ 84 ↓ 42
2019-01-11 U Анон / Anon (2018) BDRip от MegaPeer | Лицензия 1.46 GB ↑ 129 ↓ 82

Отзывы
Зарегистрируйтесь чтобы добавить комментарий.
Обратная связь
Copyleft ©