↑↓Torrent.by
Поиск
Логин: Регистрация
Пароль: Восстановить пароль
Загрузка...

Новый год, я люблю тебя! (2019) WEB-DLRip от Files-x

Скачать novyy-god-ya-lyublyu-tebya-2019-web-dlrip-ot-files-x.torrent
U Магнитная ссылка Размер: 745.58 MB Раздают: 277 Качают: 40 Добавлен: 2019-01-12 19:29:42
Новый год, я люблю тебя!  (2019) WEB-DLRip от Files-x

Оригинальное название: Новый год, я люблю тебя!
Год выпуска: 2019
Жанр:  Мелодрама, альманах
Режиссер: Павел Бардин, Михаил Местецкий, Михаил Сегал, Василий Сигарев, Клим Шипенко
В ролях: Таисия Вилкова, Максим Виторган, Михаил Горевой, Александр Горчилин, Степан Девонин, Фёдор Лавров, Пелагея, Андрей Смоляков, Ольга Сутулова, Альбина Тиханова, Регина Тодоренко, Влад Топалов, Яна Троянова

О фильме: Музыкальный киноальманах из восьми историй о событиях ушедшего года, праздничных чудесах, новых надеждах, творчестве и любви. Альманах «Новый год, я люблю тебя!» состоит из четырех художественных киноновелл и четырех музыкальных зарисовок. Герои фильма отправляются в путешествие по зимней Москве, пишут трогательные письма Деду Морозу и ждут новогодних чудес, которые происходят не только в ночь с 31 декабря на 1 января. В одной истории Ани Лорак и Валерий Меладзе показывают себя с неожиданной стороны, в другой – Пелагея оказывается в аэропорту, где слышит пронзительные истории любви, а в третьей – авторы вспоминают Олега Табакова, Иосифа Кобзона, Киру Муратову и других замечательных людей искусства. Несколько разных жанров выстраиваются в оригинальную конструкцию, чтобы создать ощущение яркого и доброго праздника.

Выпущено: Россия
Студия: Красный квадрат
Продолжительность: 00:50:22
Перевод: Не требуется

Файл
Качество: WEB-DLRip
Видео: XviD, ~ 1868 Кбит/с, 720x400
Аудио: AC3, 2 ch, 192 Кбит/с

Релиз:
[+] MediaInfo
General
Complete name                    : C:UsersuserDownloadsVideoNovyi.god.ya.lyublyu.tebya.2019.WEB-DLRip. Files-x.avi
Format                           : AVI
Format/Info                      : Audio Video Interleave
File size                        : 746 MiB
Duration                         : 50mn 22s
Overall bit rate                 : 2 069 Kbps
Writing application              : VirtualDubMod 1.5.10.3 | www.virtualdub-fr.org || (build 2550/release)
Writing library                  : VirtualDubMod build 2550/release

Video
ID                               : 0
Format                           : MPEG-4 Visual
Format profile                   : Advanced Simple@L5
Format settings, BVOP            : 1
Format settings, QPel            : No
Format settings, GMC             : No warppoints
Format settings, Matrix          : Custom
Codec ID                         : XVID
Codec ID/Hint                    : XviD
Duration                         : 50mn 22s
Bit rate                         : 1 868 Kbps
Width                            : 720 pixels
Height                           : 400 pixels
Display aspect ratio             : 16:9
Frame rate                       : 25.000 fps
Color space                      : YUV
Chroma subsampling               : 4:2:0
Bit depth                        : 8 bits
Scan type                        : Progressive
Compression mode                 : Lossy
Bits/(Pixel*Frame)               : 0.259
Stream size                      : 673 MiB (90%)
Writing library                  : XviD 73

Audio
ID                               : 1
Format                           : AC-3
Format/Info                      : Audio Coding 3
Mode extension                   : CM (complete main)
Codec ID                         : 2000
Duration                         : 50mn 22s
Bit rate mode                    : Constant
Bit rate                         : 192 Kbps
Channel(s)                       : 2 channels
Channel positions                : Front: L R
Sampling rate                    : 48.0 KHz
Bit depth                        : 16 bits
Compression mode                 : Lossy
Stream size                      : 69.2 MiB (9%)
Alignment                        : Split accross interleaves
Interleave, duration             : 40 ms (1.00 video frame)
Interleave, preload duration     : 500 ms



Скриншоты:
[+] Всего файлов в раздаче - 1:
Novyi.god.ya.lyublyu.tebya.2019.WEB-DLRip. Files-x.avi745.58 MB

Показать еще раздачи по запросу новый:
2019-04-21 U Новый Comedy Club [15х01-09] (2019) WEBRip 1080p 14.77 GB ↑ 51 ↓ 167
2019-04-20 U Новый Comedy Club [15х01-09] (2019) SATRip 5.31 GB ↑ 76 ↓ 437
2019-04-16 U Зубастики: Новый загул / Critters: A New Binge [S01] (2019) WEB-DL 1080p | TVShows 5.09 GB ↑ 226 ↓ 104
2019-04-14 U Новый Comedy Club [15х01-08] (2019) SATRip 4.73 GB ↑ 103 ↓ 303
2019-04-09 U Comedy Баттл. Новый сезон [09х01-11] (2019) WEBRip 720p от Files-x 13.04 GB ↑ 42 ↓ 95
2019-04-06 U Новый Comedy Club [эфир от 05.04] (2019) SATRip 609.09 MB ↑ 901 ↓ 117
2019-03-31 U Новый Comedy Club [15х01-06] (2019) WEBRip 720p от Files-x 6.31 GB ↑ 62 ↓ 102

Отзывы
Зарегистрируйтесь чтобы добавить комментарий.
Обратная связь
Copyleft ©