↑↓Torrent.by
Поиск
Логин: Регистрация
Пароль: Восстановить пароль
Загрузка...

Спитак (2018) WEB-DL 1080p | iTunes

Скачать spitak-2018-web-dl-1080p-itunes.torrent
U Магнитная ссылка Размер: 3.48 GB Раздают: 504 Качают: 292 Добавлен: 2019-01-13 18:01:42
Спитак (2018) WEB-DL 1080p | iTunes

Название: Спитак
Год выхода: 2018
Жанр: драма
Режиссер: Александр Котт
В ролях: Лерник Арутюнян, Эрмине Степанян, Александра Политик, Олег Васильков, Александр Кузнецов, Мартун Гевондян, Оливье Пажес, Жозефин Жапи, Константин Пояркин, Дмитрий Муляр

О фильме:
Фильм рассказывает о самом разрушительном и самом многочисленном по числу жертв землетрясении, случившемся на территории Армении 7 декабря 1988 года. Фильм «Спитак» — это история Гора, который, покинув Армению в поисках лучшей жизни, возвращается обратно после землетрясения, чтобы найти свой дом. Свою семью. Но уже поздно. Все разрушено стихией. И ему приходится заново учиться любить то, что он разрушил сам.

Страна: Россия, Армения
Продолжительность: 01:40:32
Перевод: Профессиональный (одноголосый закадровый) iTunes

Файл
Формат: MKV
Видео: 1920x858 at 25.000 fps, MPEG-4 AVC, ~4466 kbps avg
Аудио: 48 kHz, AC3, 3/2 (L,C,R,l,r) + LFE ch, ~384.00 kbps avg
Cубтитры: нет


[+] MediaInfo
General
Unique ID                   : 243117073742930979762972775937858056366 (0xB6E6A52DE1693F9F82B9F45BED9BB0AE)
Complete name               : Spitak.2018.1080p.WEB-DL.mkv
Format                      : Matroska
Format version              : Version 2
File size                   : 3.48 GiB
Duration                    : 1 h 40 min
Overall bit rate            : 4 948 kb/s
Encoded date                : UTC 2019-01-12 13:04:25
Writing application         : mkvmerge v7.8.0 ('River Man') 32bit built on Mar 27 2015 16:18:02
Writing library             : libebml v1.3.1 + libmatroska v1.4.2

Video
ID                          : 1
Format                      : AVC
Format/Info                 : Advanced Video Codec
Format profile              : High@L4
Format settings             : CABAC / 5 Ref Frames
Format settings, CABAC      : Yes
Format settings, ReFrames   : 5 frames
Codec ID                    : V_MPEG4/ISO/AVC
Duration                    : 1 h 40 min
Bit rate                    : 4 466 kb/s
Width                       : 1 920 pixels
Height                      : 858 pixels
Display aspect ratio        : 2.25:1
Frame rate mode             : Constant
Frame rate                  : 25.000 FPS
Color space                 : YUV
Chroma subsampling          : 4:2:0
Bit depth                   : 8 bits
Scan type                   : Progressive
Bits/(Pixel*Frame)          : 0.108
Stream size                 : 3.14 GiB (90%)
Title                       : Спитак.2018
Language                    : Russian
Default                     : Yes
Forced                      : No
Color range                 : Limited
Color primaries             : BT.709
Transfer characteristics    : BT.709
Matrix coefficients         : BT.709

Audio
ID                          : 2
Format                      : AC-3
Format/Info                 : Audio Coding 3
Commercial name             : Dolby Digital
Codec ID                    : A_AC3
Duration                    : 1 h 40 min
Bit rate mode               : Constant
Bit rate                    : 384 kb/s
Channel(s)                  : 6 channels
Channel layout              : L R C LFE Ls Rs
Sampling rate               : 48.0 kHz
Frame rate                  : 31.250 FPS (1536 SPF)
Bit depth                   : 16 bits
Compression mode            : Lossy
Stream size                 : 276 MiB (8%)
Language                    : Russian
Service kind                : Complete Main
Default                     : Yes
Forced                      : No



Скриншоты:
[+] Всего файлов в раздаче - 1:
Spitak.2018.1080p.WEB-DL.mkv3.48 GB

Похожие раздачи по запросу - спитак:
2019-01-18 U Спитак (2018) WEB-DLRip от Scarabey | iTunes 1.45 GB ↑ 78 ↓ 20
2019-01-14 U Спитак (2018) WEB-DLRip | iTunes 1.46 GB ↑ 359 ↓ 114

Отзывы
Зарегистрируйтесь чтобы добавить комментарий.
Обратная связь
Copyleft ©