↑↓Torrent.by
Поиск
Логин: Регистрация
Пароль: Восстановить пароль
Загрузка...

Аншлаг. Старый Новый год [эфир от 12.01] (2019) HDTVRip от Files-x

Скачать anshlag-staryy-novyy-god-efir-ot-12-01-2019-hdtvrip-files-x.torrent
U Магнитная ссылка Размер: 2.55 GB Раздают: 74 Качают: 35 Добавлен: 2019-01-14 06:16:07
Аншлаг. Старый Новый год  [эфир от 12.01]  (2019)  HDTVRip  от Files-x

Название: Аншлаг и компания Старый Новый год
Год выпуска: 2019
Жанр:  Юмор, тв-шоу
Режиссер: Юрий Кондратюк
Ведущий: Регина Дубовицкая

О фильме: "Аншлаговцы" уже много лет – привычная компания для телезрителей в Старый Новый год. Сегодня с лучшими номерами выступят постоянные участники и гости "Аншлага". Собравшись 13 января в своем клубе, чтобы встретить Старый Новый год вместе с любимыми зрителями, все артисты по традиции подготовили новые праздничные номера. В программу также вошли уникальные видеоматериалы из архива "Аншлага" разных лет.

Выпущено: Россия
Студия:  ВГТРК
Продолжительность: 02:45:21
Перевод: Не требуется

Файл
Качество: HDTVRip
Видео: XviD, ~ 2000 Кбит/с, 720х400
Аудио: AC3, 2 ch, 192 Кбит/с

Релиз:
[+] MediaInfo
General
Complete name                    : C:UsersuserDownloadsVideoАншлаг. Старый Новый год. 2019.01.12. HDTVRip-files-x.avi
Format                           : AVI
Format/Info                      : Audio Video Interleave
Format profile                   : OpenDML
File size                        : 2.55 GiB
Duration                         : 2h 45mn
Overall bit rate                 : 2 204 Kbps
Writing application              : VirtualDubMod 1.5.10.3 | www.virtualdub-fr.org || (build 2550/release)
Writing library                  : VirtualDubMod build 2550/release

Video
ID                               : 0
Format                           : MPEG-4 Visual
Format profile                   : Advanced Simple@L5
Format settings, BVOP            : 1
Format settings, QPel            : No
Format settings, GMC             : No warppoints
Format settings, Matrix          : Custom
Codec ID                         : XVID
Codec ID/Hint                    : XviD
Duration                         : 2h 45mn
Bit rate                         : 2 000 Kbps
Width                            : 720 pixels
Height                           : 400 pixels
Display aspect ratio             : 16:9
Frame rate                       : 25.000 fps
Color space                      : YUV
Chroma subsampling               : 4:2:0
Bit depth                        : 8 bits
Scan type                        : Progressive
Compression mode                 : Lossy
Bits/(Pixel*Frame)               : 0.278
Stream size                      : 2.31 GiB (91%)
Writing library                  : XviD 1.2.1 (UTC 2008-12-04)

Audio
ID                               : 1
Format                           : AC-3
Format/Info                      : Audio Coding 3
Mode extension                   : CM (complete main)
Codec ID                         : 2000
Duration                         : 2h 45mn
Bit rate mode                    : Constant
Bit rate                         : 192 Kbps
Channel(s)                       : 2 channels
Channel positions                : Front: L R
Sampling rate                    : 48.0 KHz
Bit depth                        : 16 bits
Compression mode                 : Lossy
Stream size                      : 227 MiB (9%)
Alignment                        : Split accross interleaves
Interleave, duration             : 40 ms (1.00 video frame)
Interleave, preload duration     : 500 ms



Скриншоты:
[+] Всего файлов в раздаче - 1:
Аншлаг. Старый Новый год. 2019.01.12. HDTVRip-files-x.avi2.55 GB

Похожие раздачи по запросу - аншлаг:
2018-01-15 U Аншлаг. Старый Новый год [Эфир от 13.01] (2018) WEBRip 720p 2.25 GB ↑ 475 ↓ 49
2016-10-22 U Аншлаг и компания [эфир от 21.10] (2016) HDTVRip от Files-х 1.67 GB ↑ 295 ↓ 27
2016-01-16 U Аншлаг. Старый Новый год (2016) SATRip от Files-х 1.96 GB ↑ 435 ↓ 97
2014-09-29 U Аншлаг и компания [эфир от 2014.09.27] (2014) SATRip от ExKinoRay 1.56 GB ↑ 438 ↓ 7
2014-01-15 U Аншлаг. Старый Новый Год [эфир от 13.01] (2014) SATRip 3К2.53 GB ↑ 42 ↓ 6

Отзывы
Зарегистрируйтесь чтобы добавить комментарий.
Обратная связь
Copyleft ©