↑↓Torrent.by
Поиск
Логин: Регистрация
Пароль: Восстановить пароль
Загрузка...

Т-34 (2018) WEBRip 1080p

Скачать t-34-2018-webrip-1080p.torrent
U Магнитная ссылка Размер: 5.07 GB Раздают: 1336 Качают: 1235 Добавлен: 2019-01-15 06:40:27
Т-34 (2018) WEBRip 1080p

Название: Т-34
Год выпуска: 2018
Жанр:  Драма, военный, приключения
Режиссёр: Алексей Сидоров
В ролях: Александр Петров, Виктор Добронравов, Ирина Старшенбаум, Винценц Кифер, Петр Скворцов, Семен Трескунов, Артем Быстров, Антон Богданов, Василий Уриевский, Василий Буткевич

Описание:
Во времена величайших испытаний человечества, когда от каждого действия зависят жизни любимых, два заклятых врага начнут свое противостояние.

Оказавшись в плену, вчерашний курсант Ивушкин планирует дерзкий побег. Он собирает свой экипаж и на легендарной «тридцатьчетверке» бросает вызов немецким танковым асам во главе с Ягером. Ради своей любви и Родины он готов идти до конца.

Страна: Россия
Студия: АМЕДИА, Марс Медиа Энтертейнмент
Продолжительность: 02:19:08
Язык: Русский

Файл
Формат: MKV
Качество: WEBRip 1080p
Видео: 1920x804 (2,40:1), 30,000 fps, MPEG-4 AVC ~ 5083 Кbps avg, 0.110 bit/pixel
Аудио: MP3, 44,1 kHz, 2 ch, ~128.00 kbps avg | русский |

Субтитры: Отсутствуют


[+] Инфо-файл
Общее
Уникальный идентификатор                 : 184613788940912504336730506562822017641 (0x8AE3528A90375F22ADB7C6E3A5591269)
Полное имя                               : T-34.2018.WEB-DL 1080p.mkv
Формат                                   : Matroska
Версия формата                           : Version 2
Размер файла                             : 5,07 Гбайт
Продолжительность                        : 2 ч. 19 м.
Общий поток                              : 5213 Кбит/сек
Дата кодирования                         : UTC 2019-01-15 00:04:37
Программа кодирования                    : mkvmerge v8.3.0 ('Over the Horizon') 64bit
Библиотека кодирования                   : libebml v1.3.1 + libmatroska v1.4.2

Видео
Идентификатор                            : 1
Формат                                   : AVC
Формат/Информация                        : Advanced Video Codec
Профиль формата                          : High@L4.1
Настройки формата                        : CABAC / 4 Ref Frames
Параметр CABAC формата                   : Да
Параметр RefFrames формата               : 4 кадра
Идентификатор кодека                     : V_MPEG4/ISO/AVC
Продолжительность                        : 2 ч. 19 м.
Битрейт                                  : 5083 Кбит/сек
Ширина                                   : 1920 пикселей
Высота                                   : 804 пикселя
Соотношение сторон                       : 2,40:1
Режим частоты кадров                     : Постоянный
Частота кадров                           : 30,000 кадров/сек
Цветовое пространство                    : YUV
Субдискретизация насыщенности            : 4:2:0
Битовая глубина                          : 8 бит
Тип развёртки                            : Прогрессивная
Бит/(Пиксели*Кадры)                      : 0.110
Размер потока                            : 4,94 Гбайт (97%)
Default                                  : Да
Forced                                   : Нет

Аудио
Идентификатор                            : 2
Формат                                   : MPEG Audio
Версия формата                           : Version 1
Профиль формата                          : Layer 3
Настройки формата                        : Joint stereo / MS Stereo
Идентификатор кодека                     : A_MPEG/L3
Идентификатор кодека/Подсказка           : MP3
Продолжительность                        : 2 ч. 19 м.
Вид битрейта                             : Постоянный
Битрейт                                  : 128 Кбит/сек
Каналы                                   : 2 канала
Частота                                  : 44,1 КГц
Частота кадров                           : 38,281 кадров/сек (1152 SPF)
Метод сжатия                             : С потерями
Размер потока                            : 127 Мбайт (2%)
Библиотека кодирования                   : LAME3.98.4
Default                                  : Да
Forced                                   : Нет




Скриншоты:
[+] Всего файлов в раздаче - 1:
T-34.2018.WEB-DL 1080p.mkv5.07 GB

Показать еще раздачи по запросу webrip:
Сегодня U Белый парень Рик / White Boy Rick (2018) WEBRip | LakeFilms 1.35 GB ↑ 2 ↓ 98
Сегодня U ИП Пирогова [01-02 из 20] (2019) WEBRip 698.76 MB ↑ 78 ↓ 1
Сегодня U Последнее желание / The Final Wish (2018) WEBRip | L2 1.34 GB ↑ 70 ↓ 13
Сегодня U Прыжки во времени / Time Jumpers (2018) WEBRip 1080p | LakeFilms 1.33 GB ↑ 12 ↓ 98
Сегодня U Невский. Чужой среди чужих [03x01-10 из 20] (2018) WEBRip-AVC от Files-x 1К7.45 GB ↑ 50 ↓ 59
Сегодня U Comedy Баттл. Новый сезон [09х01-04] (2019) WEBRip 720p от Files-x 4.84 GB ↑ 76 ↓ 84
Сегодня U Человек, который убил Гитлера и затем снежного человека / The Man Who Killed Hitler and Then The Bigfoot (2018) WEBRip 720p | L2 2.19 GB ↑ 122 ↓ 29

Отзывы
Wictoriya
По любому спасибо, давно жду в качестве! Только вот не указано, что за звук (лайн, чистый или с кинотеатра)

slonof
перевод отличный!

Зарегистрируйтесь чтобы добавить комментарий.
Обратная связь
Copyleft ©