↑↓Torrent.by
Поиск
Логин: Регистрация
Пароль: Восстановить пароль
Загрузка...

День до (2016) WEB-DLRip от GeneralFilm

Скачать den-do-2016-web-dlrip-ot-generalfilm.torrent
U Магнитная ссылка Размер: 745.48 MB Раздают: 125 Качают: 29 Добавлен: 2019-01-17 12:56:07
День до (2016) WEB-DLRip от GeneralFilm

Оригинальное название: День до
Год выпуска: 2016
Жанр:  Драма, фантастика
Выпущено: Россия, ПЦ "Среда" при поддержке Фонда кино
Режиссер: Александр Котт, Владимир Котт, Александр Карпиловский, Борис Хлебников
В ролях: Александр Петров (II), Иван Дубровский, Артемий Шаффер, Даниил Муравьев-Изотов, Дарья Мороз, Елена Лядова, Анатолий Белый, Дана Абызова, Юрий Стоянов, Зоя Буряк, Александр Лыков, Сергей Бурунов, Ксения Раппопорт, Сергей Маковецкий, Андрей Малахов, Иван Краско, Филипп Киркоров

О фильме: Четыре киноновеллы о самых непохожих людях, которые узнают, что роковое столкновение кометы с Землей произойдет... завтра. Как и с кем они проведут свой последний день? Последний телеведущий на Земле, стоящий насмерть в своей студии, Андрей Малахов обсуждает главную мировую новость – меньше, чем через сутки, произойдет падение огромной кометы, которая уничтожит разом всё человечество. Герои четырех историй: «Рома и Юля», «Мишка», «Поэт», «Наследие человечества» – по-разному проведут последний день своей жизни. Двое молодых влюбленных, разлученных жестоким отцом, стремятся умереть в объятьях друг друга. Тем временем кто-то пытается уйти от хаоса и провести спокойный день в кругу близких; кто-то хочет напоследок увековечить свое имя, а кто-то – совершить как можно больше добрых дел.

Качество: WEB-DLRip
Видео: XviD build 73, 720x304 (2.37:1), 25.000 fps, 1040 Kbps (0.190 bit/pixel)
Аудио: 48.0 kHz, MP3, 2/0 ch, 128 kbps
Продолжительность: 01:28:30
Перевод: Не требуется
Cубтитры: нет

Релиз:


[+] MediaInfo

General
Complete name               : D:RazdachiDenj.Do.2016.WEB-DLRip.GeneralFilm.avi
Format                      : AVI
Format/Info                 : Audio Video Interleave
File size                   : 745 MiB
Duration                    : 1 h 28 min
Overall bit rate            : 1 178 kb/s
Writing application         : VirtualDubMod 1.5.10.3 | www.virtualdub-fr.org || (build 2550/release)
Writing library             : VirtualDubMod build 2550/release

Video
ID                          : 0
Format                      : MPEG-4 Visual
Format profile              : Advanced Simple@L5
Format settings             : BVOP1 / Custom Matrix
Format settings, BVOP       : 1
Format settings, QPel       : No
Format settings, GMC        : No warppoints
Format settings, Matrix     : Custom
Codec ID                    : XVID
Codec ID/Hint               : XviD
Duration                    : 1 h 28 min
Bit rate                    : 1 040 kb/s
Width                       : 720 pixels
Height                      : 304 pixels
Display aspect ratio        : 2.35:1
Frame rate                  : 25.000 FPS
Color space                 : YUV
Chroma subsampling          : 4:2:0
Bit depth                   : 8 bits
Scan type                   : Progressive
Compression mode            : Lossy
Bits/(Pixel*Frame)          : 0.190
Stream size                 : 658 MiB (88%)
Writing library             : XviD 73

Audio
ID                          : 1
Format                      : MPEG Audio
Format version              : Version 1
Format profile              : Layer 3
Codec ID                    : 55
Codec ID/Hint               : MP3
Duration                    : 1 h 28 min
Bit rate mode               : Constant
Bit rate                    : 128 kb/s
Channel(s)                  : 2 channels
Sampling rate               : 48.0 kHz
Frame rate                  : 41.667 FPS (1152 SPF)
Compression mode            : Lossy
Stream size                 : 81.0 MiB (11%)
Alignment                   : Aligned on interleaves
Interleave, duration        : 40  ms (1.00 video frame)
Interleave, preload duratio : 504  ms
Writing library             : LAME3.99r
Encoding settings           : -m s -V 4 -q 2 -lowpass 17 -b 128



Скриншоты:
[+] Всего файлов в раздаче - 1:
Denj.Do.2016.WEB-DLRip.GeneralFilm.avi745.48 MB

Показать еще раздачи по запросу день:
Вчера U Один день / Ha-roo / A Day (2017) HDRip от ExKinoRay | BadBajo 1.45 GB ↑ 118 ↓ 31
2019-08-16 U День / Ha-roo (A Day) (2017) BDRip 1080p | BadBajo 7.79 GB ↑ 69 ↓ 53
2019-08-09 U Пятый день / Day 5 [S01] (2016) HDRip | ViruseProject 3.98 GB ↑ 23 ↓ 5
2019-08-04 U Хороший день (2018) WEB-DLRip от GeneralFilm 1.37 GB ↑ 101 ↓ 34
2019-08-04 U Хороший день (2018) WEB-DLRip-AVC от Files-x 1.37 GB ↑ 58 ↓ 9
2019-07-21 U Один день лета (2018) WEBRip 720p от ExKinoRay 2.88 GB ↑ 106 ↓ 33
2019-07-21 U Один день лета (2018) HDTV 1080p от Generalfilm 4.85 GB ↑ 152 ↓ 40

Отзывы
Зарегистрируйтесь чтобы добавить комментарий.
Обратная связь
Copyleft ©