↑↓Torrent.by
Поиск
Логин: Регистрация
Пароль: Восстановить пароль
Загрузка...

Служу Советскому Союзу! (2012) DVDRip-AVC от New-Team

Скачать sluzhu-sovetskomu-soyuzu-2012-dvdrip-avc-ot-new-team.torrent
U Магнитная ссылка Размер: 1.45 GB Раздают: 215 Качают: 25 Добавлен: 2019-01-19 10:40:36
Служу Советскому Союзу! (2012) DVDRip-AVC от New-Team

Страна: Россия
Производство: Интер
Жанр:  драма, история, военный
Год выпуска: 2012
Продолжительность: 01:37:21

Перевод: не требуется
Оригинальная аудиодорожка: русский
Cубтитры:  нет

Режиссер: Александр Устюгов

В ролях:
Максим Аверин, Нонна Гришаева, Юрий Ицков, Сергей Перегудов, Сергей Уманов, Дмитрий Поднозов, Олег Алмазов, Алексей Блохин, Виталий Тимашков, Сергей Оленберг...

Описание:
СССР, 1941 год. Она — всенародно любимая актриса, своевольная и независимая, способная отказать даже всесильному начальнику НКВД Лаврентию Берии. Он — не менее популярный писатель, «золотое перо» центральной газеты, денди и любимец публики. По мнению окружающих, они — самая гармоничная, просто образцовая «советская пара», но отношения двух ярких личностей далеки от гармонии.
Чтобы понять, насколько сильны их чувства, героям придется расстаться перед самой войной и вновь встретиться уже в лагере для заключенных в районе Мурманска, на берегу Белого моря. Он — как враг народа, допустивший непростительную опечатку в газете, она — как член коллектива художественной самодеятельности, обслуживающего подразделения ГУЛАГа. Когда недалеко от лагеря высаживается группа фашистских диверсантов, у заключенных появляется шанс доказать свою преданность Родине, а у бывших возлюбленных — восстановить свою любовь…

Исходник: DVD9 R5
Тип релиза: DVDRip-AVC
Контейнер: MKV

Видео: 720->1024x576 (16:9), 25 fps, XviD ~ 1755 kbps avg, 0.169 bit/pixel
Аудио: 48 kHz, Dolby AC3 5.1, 384 kbps
[+] MediaInfo

Общее
Полное имя                               : Sluju.Sovetskomu.Souzy!2012.DVDRip-AVC_[Youtracker]_by_AVP Studio.mkv
Формат                                   : Matroska
Версия формата                           : Version 2
Размер файла                             : 1,45 Гбайт
Продолжительность                        : 1 ч. 37 м.
Общий поток                              : 2137 Кбит/сек
Дата кодирования                         : UTC 2013-09-23 14:41:01
Программа кодирования                    : mkvmerge v6.1.0 ('Old Devil') built on Mar  4 2013 09:10:42
Библиотека кодирования                   : libebml v1.3.0 + libmatroska v1.4.0

Видео
Идентификатор                            : 1
Формат                                   : AVC
Формат/Информация                        : Advanced Video Codec
Профиль формата                          : High@L4.1
Параметр CABAC формата                   : Да
Параметр ReFrames формата                : 11 кадров
Идентификатор кодека                     : V_MPEG4/ISO/AVC
Продолжительность                        : 1 ч. 37 м.
Битрейт                                  : 1755 Кбит/сек
Ширина                                   : 720 пикселей
Высота                                   : 576 пикселей
Соотношение сторон                       : 16:9
Частота кадров                           : 25,000 кадров/сек
Стандарт вещания                         : PAL
Цветовое пространство                    : YUV
Субдискретизация насыщенности            : 4:2:0
Битовая глубина                          : 8 бит
Тип развёртки                            : Прогрессивная
Бит/(Пиксели*Кадры)                      : 0.169
Размер потока                            : 1,16 Гбайт (80%)
Библиотека кодирования                   : x264 core 138 r2356 a1d3d17
Настройки программы                      : cabac=1 / ref=11 / deblock=1:-2:-1 / analyse=0x3:0x113 / me=umh / subme=9 / psy=1 / psy_rd=1.00:0.15 / mixed_ref=1 / me_range=32 / chroma_me=1 / trellis=1 / 8x8dct=1 / cqm=0 / deadzone=21,11 / fast_pskip=0 / chroma_qp_offset=-3 / threads=3 / lookahead_threads=1 / sliced_threads=0 / nr=0 / decimate=0 / interlaced=0 / bluray_compat=0 / constrained_intra=0 / bframes=8 / b_pyramid=2 / b_adapt=2 / b_bias=0 / direct=3 / weightb=1 / open_gop=0 / weightp=2 / keyint=250 / keyint_min=25 / scenecut=40 / intra_refresh=0 / rc_lookahead=60 / rc=2pass / mbtree=1 / bitrate=1755 / ratetol=1.0 / qcomp=0.60 / qpmin=0 / qpmax=69 / qpstep=4 / cplxblur=20.0 / qblur=0.5 / ip_ratio=1.40 / aq=1:1.00
Default                                  : Да
Forced                                   : Нет

Аудио
Идентификатор                            : 2
Формат                                   : AC-3
Формат/Информация                        : Audio Coding 3
Расширение режима                        : CM (complete main)
Идентификатор кодека                     : A_AC3
Продолжительность                        : 1 ч. 37 м.
Вид битрейта                             : Постоянный
Битрейт                                  : 384 Кбит/сек
Каналы                                   : 6 каналов
Расположение каналов                     : Front: L C R, Side: L R, LFE
Частота                                  : 48,0 КГц
Битовая глубина                          : 16 бит
Метод сжатия                             : С потерями
Размер потока                            : 267 Мбайт (18%)
Default                                  : Да
Forced                                   : Нет



[+] Сравнения

http://rutor.org/torrent/205239/
http://check2pic.ru/compare/31444/
Я даже не думал что AVC можно сделать так плохо



Скриншоты:
[+] Всего файлов в раздаче - 1:
Sluju.Sovetskomu.Souzy!2012.DVDRip-AVC_[Youtracker]_by_AVP Studio.mkv1.45 GB

Похожие раздачи по запросу - служу:
2014-04-06 U Служу отечеству! (2010) DVDRip от NovaLan 1.46 GB ↑ 109 ↓ 2
2013-09-26 U Служу Советскому Союзу! (2012) DVDRip | лицензия 1.46 GB ↑ 111 ↓ 8

Отзывы
Зарегистрируйтесь чтобы добавить комментарий.
Обратная связь
Copyleft ©