↑↓Torrent.by
Поиск
Логин: Регистрация
Пароль: Восстановить пароль
Загрузка...

Во веки вечные (2015) HDTVRip от Files-x

Скачать vo-veki-vechnye-2015-hdtvrip-ot-files-x.torrent
U Магнитная ссылка Размер: 1.37 GB Раздают: 41 Качают: 13 Добавлен: 2019-01-20 04:37:07
Во веки вечные (2015) HDTVRip от Files-x

Оригинальное название: Во веки вечные
Год выпуска: 2015
Жанр:  Мистика, триллер
Режиссер: Владимир Чубриков
В ролях: Валерий Сторожик, Ольга Макеева, Полина Слепакова, Елена Никитина, Людмила Колесникова, Ольга Веникова, Никита Прозоровский, Ёла Санько, Сергей Тезов, Елена Михальчук, Елизавета Манохина, Полина Манохина, Александра Абрамейцева, Владимир Свешников, Евгения Бордзиловская, Ирина Красноярова, Назар Наану

О фильме: Стареющий писатель уже много лет не выходит из депрессии, после разрыва с женой. Единственное, что связывает его с реальным миром – это дочь-подросток, о которой он должен заботиться. Но однажды в его жизни появляется таинственная и прекрасная Анна. Любовь к ней возвращает героя к жизни и вдохновляет на написание романа, который приносит громкий успех. Однако его дочь решает покопаться в прошлом новоиспеченной мачехи и с удивлением узнает, что Анна не числится в живых…

Выпущено: Россия
Студия: Viper Group Production
Продолжительность: 01:22:30
Перевод: Не требуется

Файл
Качество: HDTVRip
Видео: XviD, 2169 Кбит/с, 720x400
Аудио: AC3, 2 ch, 192 Кбит/с

Релиз:


[+] MediaInfo
General
Complete name                    : C:UsersuserDownloadsVideoВо веки вечные.(2019).HDTVRip.by.Серый1779.Files-x.avi
Format                           : AVI
Format/Info                      : Audio Video Interleave
File size                        : 1.37 GiB
Duration                         : 1h 22mn
Overall bit rate                 : 2 371 Kbps
Writing application              : VirtualDubMod 1.5.10.3 | www.virtualdub-fr.org || (build 2550/release)
Writing library                  : VirtualDubMod build 2550/release

Video
ID                               : 0
Format                           : MPEG-4 Visual
Format profile                   : Advanced Simple@L5
Format settings, BVOP            : 1
Format settings, QPel            : No
Format settings, GMC             : No warppoints
Format settings, Matrix          : Custom
Codec ID                         : XVID
Codec ID/Hint                    : XviD
Duration                         : 1h 22mn
Bit rate                         : 2 169 Kbps
Width                            : 720 pixels
Height                           : 400 pixels
Display aspect ratio             : 16:9
Frame rate                       : 25.000 fps
Color space                      : YUV
Chroma subsampling               : 4:2:0
Bit depth                        : 8 bits
Scan type                        : Progressive
Compression mode                 : Lossy
Bits/(Pixel*Frame)               : 0.301
Stream size                      : 1.26 GiB (91%)
Writing library                  : XviD 73

Audio
ID                               : 1
Format                           : AC-3
Format/Info                      : Audio Coding 3
Mode extension                   : CM (complete main)
Codec ID                         : 2000
Duration                         : 1h 22mn
Bit rate mode                    : Constant
Bit rate                         : 192 Kbps
Channel(s)                       : 2 channels
Channel positions                : Front: L R
Sampling rate                    : 48.0 KHz
Bit depth                        : 16 bits
Compression mode                 : Lossy
Stream size                      : 114 MiB (8%)
Alignment                        : Split accross interleaves
Interleave, duration             : 40 ms (1.00 video frame)
Interleave, preload duration     : 500 ms



Скриншоты:
[+] Всего файлов в раздаче - 1:
Во веки вечные.(2019).HDTVRip.by.Серый1779.Files-x.avi1.37 GB

Похожие раздачи по запросу - веки:
2019-01-19 U Во веки вечные (2015) HDTVRip-AVC от Files-x 1.37 GB ↑ 80 ↓ 33
2019-01-19 U Во веки вечные (2017) SATRip 1.07 GB ↑ 130 ↓ 59

Отзывы
Зарегистрируйтесь чтобы добавить комментарий.
Обратная связь
Copyleft ©