↑↓Torrent.by
Поиск
Логин: Регистрация
Пароль: Восстановить пароль
Загрузка...

Газгольдер. Клубаре (2018) WEB-DLRip-AVC от ExKinoRay | iTunes

Скачать gazgolder-klubare-2018-web-dlrip-avc-ot-exkinoray-itunes.torrent
U Магнитная ссылка Размер: 746.02 MB Раздают: 523 Качают: 121 Добавлен: 2019-01-21 18:22:23
Газгольдер. Клубаре (2018) WEB-DLRip-AVC от ExKinoRay | iTunes

Название: Газгольдер. Клубаре
Год выпуска: 2018
Жанр:  Комедия, криминал
Режиссёр: Иван Курский
В ролях: Баста, Евгений Стычкин, Руслан Таркинский, Евгения Щербакова, Михаил Богдасаров, Владимир Сычев, Михаил Горевой, Даша Чаруша, Олег Груз, Сергей Рублев

О фильме :
Праздная жизнь известного промоутера Артура заканчивается, когда на него объявляют охоту менты. Артура ставят на счетчик в самое «горячее» время: он ввязался в большую аферу со строительством модного ночного клуба «Клубаре». Его судьба зависла между тюрьмой, смертью и шансом сорвать реальный джекпот. Проблемы Артура набирают обороты. И его план имеет самую неожиданную развязку.

Страна: Россия
Студия: Gazgolder Records
Продолжительность: 01:48:00
Язык: Русский

Файл
Формат: MKV
Качество: WEB-DLRip-AVC
Видео: MPEG-4 AVC, 800x336, - 888 Кбит/с
Аудио:  AAC-HE, 2 ch, - 76 Кбит/с
Субтитры: Нет


[+] MI
Общее
Уникальный идентификатор : 183146424284229088309239521521144056169 (0x89C8B7E0C8155205A72D76ABE78E4969)
Полное имя : D:MOVIESGazgolder.Klubare.2018.ExKinoRay.mkv
Формат : Matroska
Версия формата : Version 4 / Version 2
Размер файла : 746 Мбайт
Продолжительность : 1 ч. 47 м.
Общий поток : 966 Кбит/сек
Название фильма : GAZGOLDER_CLUBARE (2018) WEB-DL 1080p
Дата кодирования : UTC 2019-01-21 04:17:07
Программа кодирования : mkvmerge v15.0.0 ('Duel with the Devil') 64-bit
Библиотека кодирования : libebml v1.3.5 + libmatroska v1.4.5

Видео
Идентификатор : 1
Формат : AVC
Формат/Информация : Advanced Video Codec
Профиль формата : High@L4.1
Параметр CABAC формата : Да
Параметр RefFrames формата : 12 кадров
Идентификатор кодека : V_MPEG4/ISO/AVC
Продолжительность : 1 ч. 47 м.
Битрейт : 888 Кбит/сек
Ширина : 800 пикселей
Высота : 336 пикселей
Соотношение сторон : 2,40:1
Режим частоты кадров : Постоянный
Частота кадров : 24,000 кадра/сек
Цветовое пространство : YUV
Субдискретизация насыщенности : 4:2:0
Битовая глубина : 8 бит
Тип развёртки : Прогрессивная
Бит/(Пиксели*Кадры) : 0.138
Размер потока : 686 Мбайт (92%)
Библиотека кодирования : x264 core 152 r2851kMod ba24899
Настройки программы : cabac=1 / ref=12 / deblock=1:-3:-3 / analyse=0x3:0x133 / me=umh / subme=10 / psy=1 / fade_compensate=0.00 / psy_rd=1.00:0.15 / mixed_ref=1 / me_range=32 / chroma_me=1 / trellis=2 / 8x8dct=1 / cqm=0 / deadzone=21,11 / fast_pskip=0 / chroma_qp_offset=-3 / threads=6 / lookahead_threads=1 / sliced_threads=0 / nr=0 / decimate=0 / interlaced=0 / bluray_compat=0 / constrained_intra=0 / bframes=11 / b_pyramid=2 / b_adapt=2 / b_bias=0 / direct=3 / weightb=1 / open_gop=0 / weightp=2 / keyint=240 / keyint_min=23 / scenecut=40 / intra_refresh=0 / rc_lookahead=40 / rc=2pass / mbtree=1 / bitrate=888 / ratetol=1.0 / qcomp=0.60 / qpmin=0 / qpmax=69 / qpstep=4 / cplxblur=20.0 / qblur=0.5 / ip_ratio=1.40 / aq=3:1.00
Default : Да
Forced : Нет

Аудио
Идентификатор : 2
Формат : AAC
Формат/Информация : Advanced Audio Codec
Профиль формата : HE-AAC / LC
Идентификатор кодека : A_AAC
Продолжительность : 1 ч. 47 м.
Битрейт : 76,0 Кбит/сек
Каналы : 2 канала
Расположение каналов : Front: L R
Частота : 48,0 КГц / 24,0 КГц
Частота кадров : 23,438 кадра/сек (1024 SPF)
Метод сжатия : С потерями
Задержка видео : 31 мс.
Размер потока : 58,7 Мбайт (8%)
Язык : Russian
Default : Да
Forced : Нет

Меню
00:00:00.000 : en:Глава 1
00:08:06.541 : en:Глава 2
00:16:39.082 : en:Глава 3
00:24:50.540 : en:Глава 4
00:33:21.123 : en:Глава 5
00:41:29.331 : en:Глава 6
00:50:02.456 : en:Глава 7
00:58:51.622 : en:Глава 8
01:07:07.622 : en:Глава 9
01:15:27.372 : en:Глава 10
01:24:07.413 : en:Глава 11
01:32:37.413 : en:Глава 12



Скриншоты:
[+] Всего файлов в раздаче - 1:
Gazgolder.Klubare.2018.ExKinoRay.mkv746.02 MB

Похожие раздачи по запросу - газгольдер:
2018-11-22 U Газгольдер. Клубаре (2018) WEB-DLRip от Generalfilm | КПК | iTunes 410.87 MB ↑ 176 ↓ 22
2018-11-22 U Газгольдер. Клубаре (2018) WEB-DLRip-AVC от OlLanDGroup | iTunes 745.46 MB ↑ 176 ↓ 64
2018-11-22 U Газгольдер. Клубаре (2018) WEB-DL 1080p | iTunes 3.51 GB ↑ 882 ↓ 263
2018-11-22 U Газгольдер. Клубаре (2018) WEB-DLRip | iTunes 1.37 GB ↑ 468 ↓ 216
2016-08-12 U Газгольдер: Фильм (2014) BDRip 1080p 3.94 GB ↑ 974 ↓ 5
2014-12-13 U Газгольдер: Фильм (2014) WEB-DLRip 2.05 GB ↑ 1855 ↓ 72

Отзывы
SergeiViking1
Шлак

Зарегистрируйтесь чтобы добавить комментарий.
Обратная связь
Copyleft ©