↑↓Torrent.by
Поиск
Логин: Регистрация
Пароль: Восстановить пароль
Загрузка...

Экипаж (2016) HDTVRip 720p | Open Matte

Скачать ekipazh-2016-hdtvrip-720p-open-matte.torrent
U Магнитная ссылка Размер: 5.18 GB Раздают: 48 Качают: 12 Добавлен: 2019-01-23 06:43:55
Экипаж (2016) HDTVRip 720p | Open Matte

Название: Экипаж
Год выхода: 2016
Жанр:  драма, приключения, триллер
Режиссер: Николай Лебедев

В ролях: Данила Козловский, Владимир Машков, Агне Грудите, Сергей Кемпо, Катерина Шпица, Сергей Шакуров, Сергей Газаров, Елена Яковлева, Алёна Бабенко, Сергей Романович

О фильме:
История талантливого молодого летчика Алексея Гущина. Он не признает авторитетов, предпочитая поступать в соответствии с личным кодексом чести. За невыполнение абсурдного приказа его выгоняют из военной авиации, и только чудом он получает шанс летать на гражданских самолетах.
Гущин начинает свою летную жизнь сначала. Его наставник — командир воздушного судна — суровый и принципиальный Леонид Зинченко. Его коллега — второй пилот, неприступная красавица Александра. Отношения складываются непросто. Но на грани жизни и смерти, когда земля уходит из-под ног, вокруг — огонь и пепел и только в небе есть спасение, Гущин показывает все, на что он способен. Только вместе экипаж сможет совершить подвиг и спасти сотни жизней.

Страна: Россия
Продолжительность: 02:07:23
Перевод: Оригинал (Русский)
Субтитры: нет

Файл
Кодек: x264
Качество: HDTVRip 720p | Open Matte
Видео: 1278x720, ~4878 Kbps, 25.000 fps
Аудио #1: 48.0 kHz, AC3, 2 ch, 384 kbps - [Русский] - HDTV
Аудио #2: 48.0 kHz, AC3, 6 ch, 448 kbps - [Русский] - DVD

***Релиз от: -=DoMiNo=-


[+] Дополнительно:
Советую смотреть со стерео дорогой - наполнение совсем другое - отчётливо слышна речь и окружающая обстановка)) + нет рассинхрона
Исходник HDTV  1080i - найден в сети (Не с Кинозала) качество много лучше
Аудио дорога №2 - с ДВД - (подогнана ~ приблизительно - местами может появляться плавающий рассинхрон)
В фильме отсутствуют титры (после его окончания)



[+] M/I
General
Unique ID                   : 312591338094868922377154322986978010425 (0xEB2AE6DEF0B4400AB318401746046539)
Complete name               : Экипаж.(2016).HDTVRip.720p.O.M.[-=DoMiNo=-].mkv
Format                      : Matroska
Format version              : Version 4
File size                   : 5.18 GiB
Duration                    : 2 h 7 min
Overall bit rate            : 5 826 kb/s
Movie name                  : Экипаж
Deion                 : История талантливого молодого летчика Алексея Гущина. Он не признает авторитетов, предпочитая поступать в соответствии с личным кодексом чести. За невыполнение абсурдного приказа его выгоняют из военной авиации, и только чудом он получает шанс летать на гражданских самолетах.  Гущин начинает свою летную жизнь сначала. Его наставник — командир воздушного судна — суровый и принципиальный Леонид Зинченко. Его коллега — второй пилот, неприступная красавица Александра. Отношения складываются непросто. Но на грани жизни и смерти, когда земля уходит из-под ног, вокруг — огонь и пепел и только в небе есть спасение, Гущин показывает все, на что он способен. Только вместе экипаж сможет совершить подвиг и спасти сотни жизней.
Attachments                 : poster.jpg
ACTORS                      : Danila Kozlovsky, Vladimir Mashkov, Agnė Grudytė, Sergey Shakurov, Sergey Romanovich, Elena Yakovleva, Sergey Gazarov, Sergey Kempo, Katerina Shpitsa, Irina Pegova, Alesya Guzko, Ivan Egorov, Anton Tuzikov, Tatyana Novik (I)
COUNTRY                     : Russia
DATE                        : 2016-04-21
DIRECTOR                    : Nikolay Lebedev
GENRE                       : драма, боевик
ITUNEXTC                    : RUMOVIE|6+|150|
PRODUCER                    : Anton Zlatopolsky, Leonid Vereshchagin
PUBLISHER                   : VGTRK, Vserossiyskaya Gosudarstvennaya Televizionnaya i Radioveshchatelnaya Kompaniya (VGTRK), Three T Productions
RATING                      : 7.03
WRITER                      : Nikolai Kulikov

Video
ID                          : 1
Format                      : AVC
Format/Info                 : Advanced Video Codec
Format profile              : High@L4.1
Format settings             : CABAC / 9 Ref Frames
Format settings, CABAC      : Yes
Format settings, ReFrames   : 9 frames
Codec ID                    : V_MPEG4/ISO/AVC
Duration                    : 2 h 7 min
Bit rate                    : 4 878 kb/s
Width                       : 1 278 pixels
Height                      : 720 pixels
Display aspect ratio        : 16:9
Frame rate mode             : Constant
Frame rate                  : 25.000 FPS
Color space                 : YUV
Chroma subsampling          : 4:2:0
Bit depth                   : 8 bits
Scan type                   : Progressive
Bits/(Pixel*Frame)          : 0.212
Stream size                 : 4.34 GiB (84%)
Title                       : RIP_BY_-=DoMiNo=-
Writing library             : x264 core 157 r2935 545de2f
Encoding settings           : cabac=1 / ref=9 / deblock=1:-2:-2 / analyse=0x3:0x133 / me=umh / subme=11 / psy=1 / psy_rd=1.00:0.10 / mixed_ref=1 / me_range=32 / chroma_me=1 / trellis=2 / 8x8dct=1 / cqm=0 / deadzone=21,11 / fast_pskip=0 / chroma_qp_offset=-3 / threads=6 / lookahead_threads=1 / sliced_threads=0 / nr=0 / decimate=1 / interlaced=0 / bluray_compat=0 / constrained_intra=0 / bframes=10 / b_pyramid=2 / b_adapt=2 / b_bias=0 / direct=1 / weightb=1 / open_gop=0 / weightp=2 / keyint=250 / keyint_min=25 / scenecut=40 / intra_refresh=0 / rc=crf / mbtree=0 / crf=19.0 / qcomp=0.60 / qpmin=0 / qpmax=69 / qpstep=4 / ip_ratio=1.40 / pb_ratio=1.30 / aq=1:1.00
Default                     : Yes
Forced                      : No
Color range                 : Limited
Color primaries             : BT.709
Transfer characteristics    : BT.709
Matrix coefficients         : BT.709

Audio #1
ID                          : 2
Format                      : AC-3
Format/Info                 : Audio Coding 3
Commercial name             : Dolby Digital
Codec ID                    : A_AC3
Duration                    : 2 h 7 min
Bit rate mode               : Constant
Bit rate                    : 384 kb/s
Channel(s)                  : 2 channels
Channel layout              : L R
Sampling rate               : 48.0 kHz
Frame rate                  : 31.250 FPS (1536 SPF)
Bit depth                   : 16 bits
Compression mode            : Lossy
Stream size                 : 350 MiB (7%)
Language                    : Russian
Service kind                : Complete Main
Default                     : Yes
Forced                      : No

Audio #2
ID                          : 3
Format                      : AC-3
Format/Info                 : Audio Coding 3
Commercial name             : Dolby Digital
Codec ID                    : A_AC3
Duration                    : 2 h 7 min
Bit rate mode               : Constant
Bit rate                    : 448 kb/s
Channel(s)                  : 6 channels
Channel layout              : L R C LFE Ls Rs
Sampling rate               : 48.0 kHz
Frame rate                  : 31.250 FPS (1536 SPF)
Bit depth                   : 16 bits
Compression mode            : Lossy
Stream size                 : 408 MiB (8%)
Language                    : Russian
Service kind                : Complete Main
Default                     : No
Forced                      : No



Скриншоты:
[+] Всего файлов в раздаче - 1:
Экипаж.(2016).HDTVRip.720p.O.M. [-=DoMiNo=-].mkv5.18 GB

Показать еще раздачи по запросу экипаж:
2018-12-11 U Улетный экипаж [S02] (2018) WEB-DLRip 6.45 GB ↑ 82 ↓ 110
2018-12-11 U Улетный экипаж [S02] (2018) WEB-DL 720p от Files-x 12.72 GB ↑ 41 ↓ 310
2018-12-11 U Улетный экипаж [S02] (2018) WEB-DLRip-AVC от Files-x 6.25 GB ↑ 147 ↓ 173
2018-12-04 U Улетный экипаж [02х01-12 из 21] (2018) WEB-DLRip 3.67 GB ↑ 68 ↓ 67
2018-12-04 U Улетный экипаж [02х01-012 из 21] (2018) WEB-DLRip-AVC от Files-x 3.56 GB ↑ 46 ↓ 41
2018-12-03 U Улетный экипаж [02х01-12 из 21] (2018) WEB-DL 720p от Files-x 7.24 GB ↑ 96 ↓ 249
2018-11-27 U Улетный экипаж [02х01-08 из 21] (2018) WEB-DLRip-AVC от Files-x 2.38 GB ↑ 61 ↓ 55

Отзывы
Зарегистрируйтесь чтобы добавить комментарий.
Обратная связь
Copyleft ©