↑↓Torrent.by
Поиск
Логин: Регистрация
Пароль: Восстановить пароль
Загрузка...

Праздник Нептуна (1986) DVDRip-AVC от KORSAR

Скачать prazdnik-neptuna-1986-dvdrip-avc-ot-korsar.torrent
U Магнитная ссылка Размер: 910.14 MB Раздают: 95 Качают: 12 Добавлен: 2019-01-23 06:43:58
Праздник Нептуна (1986) DVDRip-AVC от KORSAR

Название: Праздник Нептуна
Год выхода: 1986
Жанр: Короткометражка, комедия
Режиссер: Юрий Мамин, Юрий Афанасьев, Наталья Шилок
В ролях: Виктор Михайлов, Виолетта Жухимович, Роберт Курляндчик, Яков Степанов, Виктор Цепаев, Анатолий Быстров, Иван Криворучко, Людмила Аринина, Елена Капица, Владимир Еремин

О фильме: Директор Дома культуры запланировал на 1 января праздник Нептуна с участием 150 «моржей». Эта цифра настолько поразила областное начальство, что в село на праздник была направлена шведская делегация, которой надо было теперь показывать праздник во всей красе.

Страна: СССР
Студия: Беларусьфильм, Дебют, Ленфильм, Мосфильм
Продолжительность: 00:43:08

Кодек: х264
Качество: DVDRip-AVC
Видео: MPEG-4 AVC, 720x556@768x556, 25 fps, 2750 Кбит/с
Аудио: AC3, 2 ch, 192 Кбит/с

Релиз:


[+] Инфо файл

x264 [info]: frame I:37 Avg QP:17.81 size: 71404
x264 [info]: frame P:615 Avg QP:20.29 size: 29123
x264 [info]: frame B:1861 Avg QP:22.31 size: 7527
Общее
Уникальный идентификатор : 244315774018176111167749915876769441299 (0xB7CD81AA6D91FFCB84CD9EF47FE0A613)
Полное имя : D:Праздник Нептуна_1986-DVDRip-AVC.mkv
Формат : Matroska
Версия формата : Version 2
Размер файла : 910 Мбайт
Продолжительность : 43 м. 14 с.
Общий поток : 2943 Кбит/сек
Дата кодирования : UTC 2017-05-22 21:51:17
Программа кодирования : mkvmerge v5.8.0 ('No Sleep / Pillow') built on Sep 2 2012 15:37:04
Библиотека кодирования : libebml v1.2.3 + libmatroska v1.3.0

Видео
Идентификатор : 1
Формат : AVC
Формат/Информация : Advanced Video Codec
Профиль формата : High@L4.1
Параметр CABAC формата : Да
Параметр ReFrames формата : 14 кадров
Идентификатор кодека : V_MPEG4/ISO/AVC
Продолжительность : 43 м. 14 с.
Битрейт : 2750 Кбит/сек
Ширина : 720 пикселей
Высота : 556 пикселей
Соотношение сторон : 1,381
Режим частоты кадров : Постоянный
Частота кадров : 25,000 кадров/сек
Цветовое пространство : YUV
Субдискретизация насыщенности : 4:2:0
Битовая глубина : 8 бит
Тип развёртки : Прогрессивная
Бит/(Пиксели*Кадры) : 0.275
Размер потока : 833 Мбайт (91%)
Библиотека кодирования : x264 core 148 r2744kMod b97ae06
Настройки программы : cabac=1 / ref=14 / deblock=1:-2:-1 / analyse=0x3:0x133 / me=umh / subme=10 / psy=1 / fade_compensate=0.00 / psy_rd=1.05:0.10 / mixed_ref=1 / me_range=32 / chroma_me=1 / trellis=2 / 8x8dct=1 / cqm=0 / deadzone=21,11 / fast_pskip=0 / chroma_qp_offset=-3 / threads=12 / lookahead_threads=3 / sliced_threads=0 / nr=0 / decimate=0 / interlaced=0 / bluray_compat=0 / constrained_intra=0 / bframes=10 / b_pyramid=2 / b_adapt=2 / b_bias=0 / direct=3 / weightb=1 / open_gop=0 / weightp=2 / keyint=250 / keyint_min=25 / scenecut=40 / intra_refresh=0 / rc=2pass / mbtree=0 / bitrate=2750 / ratetol=1.0 / qcomp=0.63 / qpmin=0 / qpmax=39 / qpstep=4 / cplxblur=20.0 / qblur=0.5 / ip_ratio=1.25 / pb_ratio=1.30 / aq=2:0.90
Язык : English
Default : Да
Forced : Нет
Цветовой диапазон : Limited
Основные цвета : BT.601 PAL
Характеристики трансфера : BT.470 System B, BT.470 System G
Коэффициенты матрицы : BT.601

Аудио
Идентификатор : 2
Формат : AC-3
Формат/Информация : Audio Coding 3
Расширение режима : CM (complete main)
Параметр Endianness формата : Big
Идентификатор кодека : A_AC3
Продолжительность : 43 м. 14 с.
Вид битрейта : Постоянный
Битрейт : 192 Кбит/сек
Каналы : 2 канала
Расположение каналов : Front: L R
Частота : 48,0 КГц
Частота кадров : 31,250 кадров/сек (1536 spf)
Битовая глубина : 16 бит
Метод сжатия : С потерями
Размер потока : 59,4 Мбайт (7%)
Язык : Russian
Default : Да
Forced : Нет

Меню
00:00:00.000 : en:Chapter 1
00:04:00.480 : en:Chapter 2
00:06:48.960 : en:Chapter 3
00:10:07.200 : en:Chapter 4
00:13:48.000 : en:Chapter 5
00:17:25.920 : en:Chapter 6
00:20:23.520 : en:Chapter 7
00:24:36.000 : en:Chapter 8
00:28:32.640 : en:Chapter 9
00:32:44.640 : en:Chapter 10
00:37:02.880 : en:Chapter 11
00:39:58.560 : en:Chapter 12



Скриншоты:
[+] Всего файлов в раздаче - 1:
Праздник Нептуна_1986-DVDRip-AVC.mkv910.14 MB

Показать еще раздачи по запросу праздник:
2019-01-03 U Праздник (2019) WEBRip от GeneralFilm 743.89 MB ↑ 319 ↓ 73
2019-01-03 U Праздник (2019) WEBRip-AVC от ExKinoRay 1.09 GB ↑ 169 ↓ 72
2019-01-03 U Праздник (2019) WEBRip от Files-x 1.18 GB ↑ 350 ↓ 178
2018-03-25 U Праздник лета / Sommerfest (2017) WEBRip | GreenРай Studio 1.38 GB ↑ 53 ↓ 5
2018-03-12 U Праздник разбитых сердец (2017) WEB-DLRip-AVC от Files-x 1.37 GB ↑ 129 ↓ 30
2018-03-12 U Праздник разбитых сердец (2017) WEB-DLRip от Files-x 1.37 GB ↑ 169 ↓ 34
2018-02-05 U Тролли: праздник продолжается / Trolls: The Beat Goes On [S01] (2018) WEB-DLRip | NewStudio 1.77 GB ↑ 271 ↓ 32

Отзывы
Зарегистрируйтесь чтобы добавить комментарий.
Обратная связь
Copyleft ©