↑↓Torrent.by
Поиск
Логин: Регистрация
Пароль: Восстановить пароль
Загрузка...

Ёлки Последние (2018) WEB-DL 1080p | iTunes

Скачать elki-poslednie-2018-web-dl-1080p-itunes.torrent
U Магнитная ссылка Размер: 3.31 GB Раздают: 1387 Качают: 776 Добавлен: 2019-01-24 11:06:16
Ёлки Последние (2018) WEB-DL 1080p | iTunes

Название: Ёлки Последние
Год выхода: 2018
Жанр: комедия
Режиссер: Тимур Бекмамбетов, Егор Баранов, Анна Пармас, Александр Котт

В ролях:
Иван Ургант, Сергей Светлаков, Дмитрий Нагиев, Елена Яковлева, Юлия Александрова, Даниил Вахрушев, Александр Головин, Александр Домогаров мл., Юрий Кузнецов, Марк Богатырёв и др.

Описание фильиа:
«Ёлки Последние» станут самыми трогательными, добрыми и волшебными из всех, потому что любимые герои будут прощаться со зрителями. В киноальманах войдет пять новогодних историй. В новелле «Сосны» миллениал поможет своему брутальному отчиму дяде Юре сделать предложение руки и сердца. В «Братьях» неразлучные друзья Боря и Женя вновь окажутся на грани расставания, потому что Женя собирается вернуться в Якутск. Лыжник и сноубордист перевернут весь город ради улыбки одной красавицы в новелле «Ресторан быстрого знакомства». «Вокзал на троих» расскажет историю о простой девушке из Воронежа, отправившейся в погоню за своим счастьем - столичным актером Комаровским, а в новелле «Вредный дедушка» Снегурочка поедет спасать одинокого, но очень ворчливого дедушку.

Страна: Россия
Студия: Фонд кино
Продолжительность: 01:26:36

Файл
Формат: MKV
Качество: WEB-DL 1080p

Видео: MPEG-4 AVC, ~ 4428 Кбит/с, 1920х804
Аудио RUS: 48 kHz, AC3, 6 ch, ~384.00 kbps avg


[+] MediaInfo
Общее
Уникальный идентификатор                 : 252877752553371949625998366412004822592 (0xBE3E7BCCA1D32ADFBE827923BC7E8E40)
Полное имя                               : YOLKI_POSLEDNIE_WEB_DL_1080p-BLUEBIRD.mkv
Формат                                   : Matroska
Версия формата                           : Version 4
Размер файла                             : 3,31 Гбайт
Продолжительность                        : 1 ч. 36 м.
Общий поток                              : 4909 Кбит/сек
Название фильма                          : YOLKI_POSLEDNIE_WEB_DL_1080p-BLUEBIRD
Дата кодирования                         : UTC 2019-01-23 19:44:52
Программа кодирования                    : mkvmerge v6.9.1 ('Blue Panther') 32bit built on Apr 18 2014 18:15:44
Библиотека кодирования                   : libebml v1.3.0 + libmatroska v1.4.1
Обложка                                  : Yes
Attachments                              : cover.png

Видео
Идентификатор                            : 1
Формат                                   : AVC
Формат/Информация                        : Advanced Video Codec
Профиль формата                          : High@L4
Настройки формата                        : CABAC / 5 Ref Frames
Параметр CABAC формата                   : Да
Параметр RefFrames формата               : 5 кадров
Идентификатор кодека                     : V_MPEG4/ISO/AVC
Продолжительность                        : 1 ч. 36 м.
Битрейт                                  : 4428 Кбит/сек
Ширина                                   : 1920 пикселей
Высота                                   : 804 пикселя
Соотношение сторон                       : 2,40:1
Режим частоты кадров                     : Постоянный
Частота кадров                           : 24,000 кадра/сек
Цветовое пространство                    : YUV
Субдискретизация насыщенности            : 4:2:0
Битовая глубина                          : 8 бит
Тип развёртки                            : Прогрессивная
Бит/(Пиксели*Кадры)                      : 0.120
Размер потока                            : 2,99 Гбайт (90%)
Заголовок                                : YOLKI_POSLEDNIE_WEB_DL_1080p-BLUEBIRD
Язык                                     : English
Default                                  : Да
Forced                                   : Нет
Цветовой диапазон                        : Limited
Основные цвета                           : BT.709
Характеристики трансфера                 : BT.709
Коэффициенты матрицы                     : BT.709

Аудио
Идентификатор                            : 2
Формат                                   : AC-3
Формат/Информация                        : Audio Coding 3
Коммерческое название                    : Dolby Digital
Идентификатор кодека                     : A_AC3
Продолжительность                        : 1 ч. 36 м.
Вид битрейта                             : Постоянный
Битрейт                                  : 384 Кбит/сек
Каналы                                   : 6 каналов
Channel layout                           : L R C LFE Ls Rs
Частота                                  : 48,0 КГц
Частота кадров                           : 31,250 кадров/сек (1536 SPF)
Битовая глубина                          : 16 бит
Метод сжатия                             : С потерями
Размер потока                            : 265 Мбайт (8%)
Заголовок                                : [ORIGINAL] DD 5.1 @ 384 kbps (iTunes)
Язык                                     : Russian
Default                                  : Да
Forced                                   : Нет

Текст
Идентификатор                            : 3
Формат                                   : UTF-8
Идентификатор кодека                     : S_TEXT/UTF8
Идентификатор кодека/Информация          : UTF-8 Plain Text
Заголовок                                : Full-length
Язык                                     : English
Default                                  : Нет
Forced                                   : Нет

Меню
00:00:00.000                             : en:Глава 1
00:07:17.000                             : en:Глава 2
00:14:45.458                             : en:Глава 3
00:20:12.541                             : en:Глава 4
00:28:49.957                             : en:Глава 5
00:35:37.957                             : en:Глава 6
00:41:18.748                             : en:Глава 7
00:47:14.998                             : en:Глава 8
00:53:33.414                             : en:Глава 9
00:59:39.039                             : en:Глава 10
01:06:25.622                             : en:Глава 11
01:12:44.163                             : en:Глава 12
01:19:19.163                             : en:Глава 13
01:25:50.913                             : en:Глава 14



Скриншоты:
[+] Всего файлов в раздаче - 1:
YOLKI_POSLEDNIE_WEB_DL_1080p-BLUEBIRD.mkv3.31 GB

Показать еще раздачи по запросу последние:
2019-01-27 U Ёлки Последние (2018) WEB-DLRip от Generalfilm | КПК | iTunes 365.11 MB ↑ 73 ↓ 10
2019-01-27 U Ёлки Последние (2018) WEB-DLRip от Scarabey | iTunes 1К1.44 GB ↑ 205 ↓ 47
2019-01-25 U Ёлки Последние (2018) WEB-DLRip-AVC от ExKinoRay | iTunes 743.74 MB ↑ 67 ↓ 32
2019-01-25 U Ёлки Последние (2018) WEB-DLRip от GeneralFilm | iTunes 746.61 MB ↑ 203 ↓ 32
2019-01-24 U Ёлки Последние (2018) WEB-DLRip от ExKinoRay | iTunes 745.69 MB ↑ 382 ↓ 131
2019-01-24 U Ёлки Последние (2018) WEB-DL 720p | iTunes 2.97 GB ↑ 205 ↓ 138
2019-01-24 U Ёлки Последние (2018) WEB-DLRip от MegaPeer | iTunes 1.46 GB ↑ 501 ↓ 336

Отзывы
Зарегистрируйтесь чтобы добавить комментарий.
Обратная связь
Copyleft ©