↑↓Torrent.by
Поиск
Логин: Регистрация
Пароль: Восстановить пароль
Загрузка...

Ёлки Последние (2018) WEB-DLRip-AVC от GeneralFilm | iTunes

Скачать elki-poslednie-2018-web-dlrip-avc-ot-generalfilm-itunes.torrent
U Магнитная ссылка Размер: 1.61 GB Раздают: 617 Качают: 302 Добавлен: 2019-01-24 11:06:22
Ёлки Последние (2018) WEB-DLRip-AVC от GeneralFilm | iTunes

Год выпуска: 2018
Жанр:  Комедия
Выпущено: Россия, "Фонд кино"
Режиссер: Тимур Бекмамбетов, Егор Баранов, Анна Пармас, Александр Котт
В ролях: Иван Ургант, Сергей Светлаков, Дмитрий Нагиев, Елена Яковлева, Юлия Александрова, Даниил Вахрушев, Александр Головин, Александр Домогаров мл., Юрий Кузнецов, Марк Богатырёв

О фильме: «Ёлки Последние» станут самыми трогательными, добрыми и волшебными из всех, потому что любимые герои будут прощаться со зрителями. В киноальманах войдет пять новогодних историй. В новелле «Сосны» миллениал поможет своему брутальному отчиму дяде Юре сделать предложение руки и сердца. В «Братьях» неразлучные друзья Боря и Женя вновь окажутся на грани расставания, потому что Женя собирается вернуться в Якутск. Лыжник и сноубордист перевернут весь город ради улыбки одной красавицы в новелле «Ресторан быстрого знакомства». «Вокзал на троих» расскажет историю о простой девушке из Воронежа, отправившейся в погоню за своим счастьем - столичным актером Комаровским, а в новелле «Вредный дедушка» Снегурочка поедет спасать одинокого, но очень ворчливого дедушку.

Качество: WEB-DLRip-AVC
Видео: MPEG-4 AVC,  2000 Кбит/с, 1024х424, 24 fps
Аудио: Русский (AC3, 6 ch, 384 Кбит/с)
Продолжительность: 01:26:36
Перевод: Не требуется
Субтитры: нет

Релиз:


[+] MediaInfo

Общее
Уникальный идентификатор                 : 201160855053004751694352356389634745961 (0x97562BE364F3486B83DD08432AFCA669)
Полное имя                               : D:Jolki Poslednie.WEB-DLRip.(AVC).GeneralFilm.mkv
Формат                                   : Matroska
Версия формата                           : Version 2
Размер файла                             : 1,61 Гбайт
Продолжительность                        : 1 ч. 36 м.
Общий поток                              : 2385 Кбит/сек
Дата кодирования                         : UTC 2019-01-24 06:10:01
Программа кодирования                    : mkvmerge v7.8.0 ('River Man') 32bit built on Apr  3 2015 12:11:22
Библиотека кодирования                   : libebml v1.3.1 + libmatroska v1.4.2

Видео
Идентификатор                            : 1
Формат                                   : AVC
Формат/Информация                        : Advanced Video Codec
Профиль формата                          : High@L4.1
Параметр CABAC формата                   : Да
Параметр ReFrames формата                : 9 кадров
Идентификатор кодека                     : V_MPEG4/ISO/AVC
Продолжительность                        : 1 ч. 36 м.
Битрейт                                  : 2000 Кбит/сек
Ширина                                   : 1024 пикселя
Высота                                   : 424 пикселя
Соотношение сторон                       : 2,40:1
Режим частоты кадров                     : Постоянный
Частота кадров                           : 24,000 кадра/сек
Цветовое пространство                    : YUV
Субдискретизация насыщенности            : 4:2:0
Битовая глубина                          : 8 бит
Тип развёртки                            : Прогрессивная
Бит/(Пиксели*Кадры)                      : 0.192
Размер потока                            : 1,32 Гбайт (82%)
Библиотека кодирования                   : x264 core 146 r2538 121396c
Настройки программы                      : cabac=1 / ref=9 / deblock=1:-2:-1 / analyse=0x3:0x113 / me=umh / subme=9 / psy=1 / psy_rd=1.00:0.15 / mixed_ref=1 / me_range=32 / chroma_me=1 / trellis=2 / 8x8dct=1 / cqm=0 / deadzone=21,11 / fast_pskip=0 / chroma_qp_offset=-3 / threads=18 / lookahead_threads=3 / sliced_threads=0 / nr=0 / decimate=1 / interlaced=0 / bluray_compat=0 / constrained_intra=0 / bframes=9 / b_pyramid=2 / b_adapt=2 / b_bias=0 / direct=1 / weightb=1 / open_gop=0 / weightp=2 / keyint=250 / keyint_min=23 / scenecut=40 / intra_refresh=0 / rc_lookahead=40 / rc=2pass / mbtree=0 / bitrate=2000 / ratetol=1.0 / qcomp=0.60 / qpmin=0 / qpmax=69 / qpstep=4 / cplxblur=20.0 / qblur=0.5 / vbv_maxrate=14000 / vbv_bufsize=14000 / nal_hrd=none / filler=0 / ip_ratio=1.40 / pb_ratio=1.30 / aq=2:1.00
Default                                  : Да
Forced                                   : Нет
Цветовой диапазон                        : Limited
Основные цвета                           : BT.709
Характеристики трансфера                 : BT.709
Коэффициенты матрицы                     : BT.709

Аудио
Идентификатор                            : 2
Формат                                   : AC-3
Формат/Информация                        : Audio Coding 3
Расширение режима                        : CM (complete main)
Параметр Endianness формата              : Big
Идентификатор кодека                     : A_AC3
Продолжительность                        : 1 ч. 36 м.
Вид битрейта                             : Постоянный
Битрейт                                  : 384 Кбит/сек
Каналы                                   : 6 каналов
Расположение каналов                     : Front: L C R, Side: L R, LFE
Частота                                  : 48,0 КГц
Частота кадров                           : 31,250 кадров/сек (1536 spf)
Битовая глубина                          : 16 бит
Метод сжатия                             : С потерями
Размер потока                            : 265 Мбайт (16%)
Default                                  : Да
Forced                                   : Нет




Скриншоты:
[+] Всего файлов в раздаче - 1:
Jolki Poslednie.WEB-DLRip.(AVC).GeneralFilm.mkv1.61 GB

Показать еще раздачи по запросу последние:
2019-01-27 U Ёлки Последние (2018) WEB-DLRip от Generalfilm | КПК | iTunes 365.11 MB ↑ 74 ↓ 8
2019-01-27 U Ёлки Последние (2018) WEB-DLRip от Scarabey | iTunes 1К1.44 GB ↑ 140 ↓ 38
2019-01-25 U Ёлки Последние (2018) WEB-DLRip-AVC от ExKinoRay | iTunes 743.74 MB ↑ 65 ↓ 32
2019-01-25 U Ёлки Последние (2018) WEB-DLRip от GeneralFilm | iTunes 746.61 MB ↑ 167 ↓ 29
2019-01-24 U Ёлки Последние (2018) WEB-DLRip от ExKinoRay | iTunes 745.69 MB ↑ 359 ↓ 130
2019-01-24 U Ёлки Последние (2018) WEB-DL 720p | iTunes 2.97 GB ↑ 176 ↓ 136
2019-01-24 U Ёлки Последние (2018) WEB-DLRip от MegaPeer | iTunes 1.46 GB ↑ 379 ↓ 335

Отзывы
Зарегистрируйтесь чтобы добавить комментарий.
Обратная связь
Copyleft ©