↑↓Torrent.by
Поиск
Логин: Регистрация
Пароль: Восстановить пароль
Загрузка...

Убийца внутри меня / Killers Within (2018) HDRip | L2

Скачать ubiyca-vnutri-menya-killers-within-2018-hdrip-l2.torrent
U Магнитная ссылка Размер: 1.40 GB Раздают: 172 Качают: 58 Добавлен: 2019-01-25 14:52:47
Убийца внутри меня / Killers Within (2018) HDRip | L2

Название: Убийца внутри меня
Оригинальное название: Killers Within

Год выхода: 2018
Жанр: Ужасы, триллер
Режиссер: Пол Буш, Брайан О'Нилл
В ролях: Сью Уолш, Джефф Дойл, Джонни Эллиотт, Эндрю Мюррей, Сэм Лукас Смит, Савир Лонг, Синед О'Риордан, Патрик Мерфи, Том Ноттен, Кормак Мелиа
О фильме:
Не стоит недооценивать тех, кого грабишь. Команда, решившая грабануть госбанк своей страны, получила то, что хотела и немножечко больше. А вот удастся ли им сохранить награбленное?

Страна: Ирландия, Fever Kid Films, Millbrook Studios, Two Joker Films
Продолжительность: 01:40:21
Перевод: Любительский (двухголосый закадровый) | HiWay Grope

Файл
Кодек: XviD
Качество: HDRip
Видео: 720x304, 23.976 fps, ~1804 kbps, 0.34 bit/pixel
Звук:
Аудио rus: AC3, 48 kHz, 2 ch, 192 Kbps
Субтитры: отсутствуют

Реклама: присутствует

Семпл

Релиз от: HiWay Grope


[+] MediaInfo:

General
Complete name                            : D:Headlock.2019.HDRip.HiWayGropeHeadlock.2019.HDRip.HiWayGrope.avi
Format                                   : AVI
Format/Info                              : Audio Video Interleave
Format profile                           : OpenDML
File size                                : 1.43 GiB
Duration                                 : 1 h 42 min
Overall bit rate                         : 1 999 kb/s
Writing application                      : Lavf57.71.100

Video
ID                                       : 0
Format                                   : MPEG-4 Visual
Format profile                           : Advanced Simple@L5
Format settings, BVOP                    : No
Format settings, QPel                    : No
Format settings, GMC                     : No warppoints
Format settings, Matrix                  : Default (H.263)
Codec ID                                 : XVID
Codec ID/Hint                            : XviD
Duration                                 : 1 h 42 min
Bit rate                                 : 1 795 kb/s
Width                                    : 720 pixels
Height                                   : 304 pixels
Display aspect ratio                     : 2.35:1
Frame rate                               : 23.976 (24000/1001) FPS
Color space                              : YUV
Chroma subsampling                       : 4:2:0
Bit depth                                : 8 bits
Scan type                                : Progressive
Compression mode                         : Lossy
Bits/(Pixel*Frame)                       : 0.342
Stream size                              : 1.29 GiB (90%)
Writing library                          : XviD 67

Audio
ID                                       : 1
Format                                   : AC-3
Format/Info                              : Audio Coding 3
Commercial name                          : Dolby Digital
Codec ID                                 : 2000
Duration                                 : 1 h 42 min
Bit rate mode                            : Constant
Bit rate                                 : 192 kb/s
Channel(s)                               : 2 channels
Channel layout                           : L R
Sampling rate                            : 48.0 kHz
Frame rate                               : 31.250 FPS (1536 SPF)
Bit depth                                : 16 bits
Compression mode                         : Lossy
Stream size                              : 141 MiB (10%)
Alignment                                : Aligned on interleaves
Interleave, duration                     : 32  ms (0.77 video frame)
Service kind                             : Complete MainGeneral
Complete name                            : D:Killers Within.2019.HDRip.HiWayGropeKillers Within.2019.HDRip.HiWayGrope.avi
Format                                   : AVI
Format/Info                              : Audio Video Interleave
Format profile                           : OpenDML
File size                                : 1.40 GiB
Duration                                 : 1 h 40 min
Overall bit rate                         : 2 003 kb/s
Writing application                      : Lavf57.71.100

Video
ID                                       : 0
Format                                   : MPEG-4 Visual
Format profile                           : Advanced Simple@L5
Format settings, BVOP                    : No
Format settings, QPel                    : No
Format settings, GMC                     : No warppoints
Format settings, Matrix                  : Default (H.263)
Codec ID                                 : XVID
Codec ID/Hint                            : XviD
Duration                                 : 1 h 40 min
Bit rate                                 : 1 799 kb/s
Width                                    : 720 pixels
Height                                   : 304 pixels
Display aspect ratio                     : 2.35:1
Frame rate                               : 23.976 (24000/1001) FPS
Color space                              : YUV
Chroma subsampling                       : 4:2:0
Bit depth                                : 8 bits
Scan type                                : Progressive
Compression mode                         : Lossy
Bits/(Pixel*Frame)                       : 0.343
Stream size                              : 1.26 GiB (90%)
Title                                    : Alias Data Handler
Writing library                          : XviD 67

Audio
ID                                       : 1
Format                                   : AC-3
Format/Info                              : Audio Coding 3
Commercial name                          : Dolby Digital
Codec ID                                 : 2000
Duration                                 : 1 h 40 min
Bit rate mode                            : Constant
Bit rate                                 : 192 kb/s
Channel(s)                               : 2 channels
Channel layout                           : L R
Sampling rate                            : 48.0 kHz
Frame rate                               : 31.250 FPS (1536 SPF)
Bit depth                                : 16 bits
Compression mode                         : Lossy
Stream size                              : 138 MiB (10%)
Alignment                                : Aligned on interleaves
Interleave, duration                     : 32  ms (0.77 video frame)
Service kind                             : Complete Main




Скриншоты:
[+] Всего файлов в раздаче - 1:
Killers Within.2019.HDRip.HiWayGrope.avi1.40 GB

Показать еще раздачи по запросу убийца:
2019-07-10 U Ты, должно быть, убийца / You Might Be the Killer (2018) BDRip 1080p | HDRezka Studio 8.87 GB ↑ 116 ↓ 84
2019-07-10 U Ты, должно быть, убийца / You Might Be the Killer (2018) BDRip от MegaPeer | HDRezka Studio 1.46 GB ↑ 266 ↓ 106
2019-07-03 U Убийца внутри меня / Killers Within (2018) WEB-DL 1080p | L2 5.88 GB ↑ 34 ↓ 25
2019-06-23 U Заказанный убийца / Hitman's Run (1999) WEB-DLRip | P2, A 1.53 GB ↑ 50 ↓ 18
2019-01-27 U Убийца 2. Против всех / Sicario 2: Soldado (2018) HDTV 1080i | Локализованный видеоряд | D 2К4.85 GB ↑ 47 ↓ 12
2019-01-02 U Убийца гоблинов / Goblin Slayer [01-12 из 12] (2018) HDTVRip 720p от AniDUB | L2 4.71 GB ↑ 101 ↓ 45
2018-12-31 U Убийца гоблинов / Goblin Slayer [01-12 из 12] (2018) WEB-DL 1080p | StudioBand 23.10 GB ↑ 82 ↓ 30

Отзывы
Зарегистрируйтесь чтобы добавить комментарий.
Обратная связь
Copyleft ©