↑↓Torrent.by
Поиск
Логин: Регистрация
Пароль: Восстановить пароль
Загрузка...

Аквамен / Aquaman (2018) WEBRip 1080p | HDRezka Studio

Скачать akvamen-aquaman-2018-webrip-1080p-hdrezka-studio.torrent
U Магнитная ссылка Размер: 10.84 GB Раздают: 2403 Качают: 2366 Добавлен: 2019-01-26 13:04:32
Аквамен / Aquaman (2018) WEBRip 1080p | HDRezka Studio

Название: Аквамен
Оригинальное название: Aquaman
Год выхода: 2018
Жанр: Фантастика, фэнтези, боевик, приключения
Режиссер: Джеймс Ван
В ролях: Джейсон Момоа, Эмбер Хёрд, Дольф Лундгрен, Николь Кидман, Джули Эндрюс, Патрик Уилсон, Уиллем Дефо, Грэм МакТавиш, Талия Джейд, Джимон Хонсу, Темуэра Моррисон

О фильме: Действие фильма разворачивается в необъятном и захватывающем подводном мире семи морей, а сюжет знакомит зрителей с историей происхождения получеловека-полуатланта Артура Карри и ключевыми событиями его жизни — теми, что заставят его не только столкнуться с самим собой, но и выяснить, достоин ли он быть тем, кем ему суждено… царем!

Страна: Австралия, США
Студия: DC Comics, DC Entertainment, Panoramic Pictures
Продолжительность: 02:22:30
Перевод: Профессиональный многоголосый (HDRezka Studio)

Качество: WEBRip 1080p
Видео: MPEG-4 AVC, 1920x800, 10500 Кбит/c
Аудио: Русский, английский (AC3, 2 ch, 192 Кбит/с)
Субтитры: Корейские (хардсаб)

БЕЗ РЕКЛАМЫ!!!


[+] MediaInfo
General
Unique ID                      : 117018477961764375905984718575351217336 (0x5808F0673D7339D109623A94386DBCB8)
Complete name                  : Aquaman.2018.webriP.108Op.mkv
Format                         : Matroska
Format version                 : Version 4
File size                      : 10.8 GiB
Duration                       : 2 h 22 min
Overall bit rate               : 10.9 Mb/s
Encoded date                   : UTC 2019-01-26 05:42:25
Writing application            : mkvmerge v24.0.0 ('Beyond The Pale') 64-bit
Writing library                : libebml v1.3.6 + libmatroska v1.4.9

Video
ID                             : 1
Format                         : AVC
Format/Info                    : Advanced Video Codec
Format profile                 : High@L4.1
Format settings                : CABAC / 4 Ref Frames
Format settings, CABAC         : Yes
Format settings, ReFrames      : 4 frames
Codec ID                       : V_MPEG4/ISO/AVC
Duration                       : 2 h 22 min
Bit rate                       : 10.5 Mb/s
Width                          : 1 920 pixels
Height                         : 800 pixels
Display aspect ratio           : 2.40:1
Frame rate mode                : Constant
Frame rate                     : 29.970 (30000/1001) FPS
Color space                    : YUV
Chroma subsampling             : 4:2:0
Bit depth                      : 8 bits
Scan type                      : Progressive
Bits/(Pixel*Frame)             : 0.228
Stream size                    : 10.5 GiB (96%)
Writing library                : x264 core 142 r2479 dd79a61
Encoding settings              : cabac=1 / ref=3 / deblock=1:0:0 / analyse=0x3:0x113 / me=hex / subme=7 / psy=1 / psy_rd=1.00:0.00 / mixed_ref=1 / me_range=16 / chroma_me=1 / trellis=1 / 8x8dct=1 / cqm=0 / deadzone=21,11 / fast_pskip=1 / chroma_qp_offset=-2 / threads=18 / lookahead_threads=3 / sliced_threads=0 / nr=0 / decimate=1 / interlaced=0 / bluray_compat=0 / constrained_intra=0 / bframes=3 / b_pyramid=2 / b_adapt=1 / b_bias=0 / direct=1 / weightb=1 / open_gop=0 / weightp=2 / keyint=300 / keyint_min=30 / scenecut=40 / intra_refresh=0 / rc_lookahead=40 / rc=2pass / mbtree=1 / bitrate=10506 / ratetol=1.0 / qcomp=0.60 / qpmin=0 / qpmax=69 / qpstep=4 / cplxblur=20.0 / qblur=0.5 / vbv_maxrate=62500 / vbv_bufsize=78125 / nal_hrd=none / filler=0 / ip_ratio=1.40 / aq=1:1.00
Language                       : English
Default                        : Yes
Forced                         : No
Color range                    : Limited
Color primaries                : BT.709
Transfer characteristics       : BT.709
Matrix coefficients            : BT.709

Audio #1
ID                             : 2
Format                         : AC-3
Format/Info                    : Audio Coding 3
Commercial name                : Dolby Digital
Codec ID                       : A_AC3
Duration                       : 2 h 22 min
Bit rate mode                  : Constant
Bit rate                       : 192 kb/s
Channel(s)                     : 2 channels
Channel layout                 : L R
Sampling rate                  : 48.0 kHz
Frame rate                     : 31.250 FPS (1536 SPF)
Bit depth                      : 16 bits
Compression mode               : Lossy
Delay relative to video        : -67 ms
Stream size                    : 196 MiB (2%)
Language                       : Russian
Service kind                   : Complete Main
Default                        : Yes
Forced                         : Yes

Audio #2
ID                             : 3
Format                         : AC-3
Format/Info                    : Audio Coding 3
Commercial name                : Dolby Digital
Codec ID                       : A_AC3
Duration                       : 2 h 22 min
Bit rate mode                  : Constant
Bit rate                       : 192 kb/s
Channel(s)                     : 2 channels
Channel layout                 : L R
Sampling rate                  : 48.0 kHz
Frame rate                     : 31.250 FPS (1536 SPF)
Bit depth                      : 16 bits
Compression mode               : Lossy
Delay relative to video        : 235 ms
Stream size                    : 196 MiB (2%)
Language                       : English
Service kind                   : Complete Main
Default                        : No
Forced                         : No



Скриншоты:
[+] Всего файлов в раздаче - 1:
Aquaman.2018.webriP.108Op.mkv10.84 GB

Похожие раздачи по запросу - аквамен:
2019-01-28 U Аквамен / Aquaman (2018) WEBRip-AVC от OlLanDGroup | HDRezka Studio 2.33 GB ↑ 386 ↓ 85
2019-01-27 U Аквамен / Aquaman (2018) WEBRip 720p | HDRezka Studio 4.17 GB ↑ 172 ↓ 125
2019-01-26 U Аквамен / Aquaman (2018) WEBRip 1080p | HDRezka Studio 1К4.36 GB ↑ 550 ↓ 627
2019-01-26 U Аквамен / Aquaman (2018) WEBRip от Dalemake | HDrezka Studio 1.46 GB ↑ 792 ↓ 639
2018-12-22 U Аквамен / Aquaman (2018) TS | D 2.11 GB ↑ 464 ↓ 118
2018-08-28 U LEGO DC Comics: Аквамен - Ярость Атлантиды / LEGO DC Comics Super Heroes: Aquaman - Rage of Atlantis (2018) WEB-DLRip 1080p | Flarrow Films 3.28 GB ↑ 201 ↓ 39

Отзывы
Зарегистрируйтесь чтобы добавить комментарий.
Обратная связь
Copyleft ©