↑↓Torrent.by
Поиск
Логин: Регистрация
Пароль: Восстановить пароль
Загрузка...

Уральские пельмени - Азбука Уральских пельменей - Е [эфир от 25.01] (2019) WEBRip 720p

Скачать uralskie-pelmeni-azbuka-uralskih-pelmeney-e-efir-ot-25-01-2019-webrip-720p.torrent
U Магнитная ссылка Размер: 431.61 MB Раздают: 217 Качают: 37 Добавлен: 2019-01-26 13:04:57
Уральские пельмени - Азбука Уральских пельменей - Е [эфир от 25.01] (2019) WEBRip 720p

Название: Уральские Пельмени - Азбука Уральских пельменей Е
Год выхода: 2019
Жанр: ТВ-шоу, юмор, сатира, развлекательный
Режиссер: Анастастия Ширина, Леонид Коновалов
В ролях: Дмитрий Брекоткин, Сергей Ершов, Сергей Исаев, Сергей Калугин, Вячеслав Мясников, Александр Попов, Андрей Рожков, Дмитрий Соколов (V), Максим Ярица, Юлия Михалкова, Илана Юрьева, Ксения Корнева

О фильме: Легендарные чемпионы КВН, всеми любимые посланники юмора в уморительном шоу! Комедийная программа “Уральские пельмени” - передача, созданная неповторимой командой по производству юмора, которая прошла испытание временем и имеет целую армию поклонников. Своими выступлениями “Уральские пельмени” установили очень высокую планку комедийного шоу и не перестают удивлять зрителей великолепным, всегда свежим, ярким и необычным юмором, который нельзя спутать ни с чем. Смешные номера, искрометные шутки и мощный заряд позитива никого не оставят равнодушным.

Страна: Россия
Продолжительность: 01:12:13

Файл
Кодек: MPEG-4 AVC
Качество: WEBRip
Видео: 1280x720, 705 Кбит/с, 25 fps
Звук: AAC-LC, 2 ch, 128 kb/s
[+] MediaInfo
General
Unique ID                   : 224139583009424238624069463799810962384 (0xA89FB6A5942BBC64AA7D056EC4FB33D0)
Complete name               : UP.Azbuka.Uralskikh.Pelmenei.E.2019.WEBRip720p.mkv
Format                      : Matroska
Format version              : Version 4 / Version 2
File size                   : 432 MiB
Duration                    : 1 h 12 min
Overall bit rate            : 836 kb/s
Encoded date                : UTC 2019-01-26 04:47:22
Writing application         : mkvmerge v10.0.0 ('To Drown In You') 32bit
Writing library             : libebml v1.3.4 + libmatroska v1.4.5

Video
ID                          : 1
Format                      : AVC
Format/Info                 : Advanced Video Codec
Format profile              : Main@L3.1
Format settings, CABAC      : Yes
Format settings, ReFrames   : 3 frames
Codec ID                    : V_MPEG4/ISO/AVC
Duration                    : 1 h 12 min
Bit rate                    : 705 kb/s
Width                       : 1 280 pixels
Height                      : 720 pixels
Display aspect ratio        : 16:9
Frame rate mode             : Constant
Frame rate                  : 25.000 FPS
Color space                 : YUV
Chroma subsampling          : 4:2:0
Bit depth                   : 8 bits
Scan type                   : Progressive
Bits/(Pixel*Frame)          : 0.031
Stream size                 : 364 MiB (84%)
Default                     : Yes
Forced                      : No
Color range                 : Limited
Color primaries             : BT.709
Transfer characteristics    : BT.709
Matrix coefficients         : BT.709

Audio
ID                          : 2
Format                      : AAC
Format/Info                 : Advanced Audio Codec
Format profile              : LC
Codec ID                    : A_AAC
Duration                    : 1 h 12 min
Bit rate                    : 128 kb/s
Channel(s)                  : 2 channels
Channel positions           : Front: L R
Sampling rate               : 44.1 kHz
Frame rate                  : 43.066 FPS (1024 spf)
Compression mode            : Lossy
Stream size                 : 66.1 MiB (15%)
Language                    : English
Default                     : Yes
Forced                      : No




Скриншоты:
[+] Всего файлов в раздаче - 1:
UP.Azbuka.Uralskikh.Pelmenei.E.2019.WEBRip720p.mkv431.61 MB

Показать еще раздачи по запросу уральские:
2019-02-16 U Уральские Пельмени - ЖИ-ШИ прилетели [эфир от 15.02] (2019) WEBRip 1080p 2.40 GB ↑ 236 ↓ 90
2019-02-16 U Уральские Пельмени - ЖИ-ШИ прилетели [эфир от 15.02] (2019) SATRip 923.84 MB ↑ 715 ↓ 114
2019-02-09 U Уральские пельмени - Пляжный шизон [эфир от 08.02] (2019) WEBRip 1080p 2.40 GB ↑ 258 ↓ 128
2019-02-07 U Уральские пельмени - День сырка [эфир от 01.02] (2019) WEBRip 720p 580.59 MB ↑ 102 ↓ 28
2019-02-02 U Уральские пельмени - День сырка [эфир от 01.02] (2019) WEBRip 1080p 2.45 GB ↑ 371 ↓ 184
2019-01-26 U Уральские пельмени - Азбука Уральских пельменей. Е [эфир от 25.01] (2019) WEBRip 1080p 2.32 GB ↑ 300 ↓ 137
2019-01-19 U Уральские пельмени - Азбука Уральских пельменей - Д [эфир от 18.01] (2019) WEBRip 720p 1.18 GB ↑ 319 ↓ 89

Отзывы
Зарегистрируйтесь чтобы добавить комментарий.
Обратная связь
Copyleft ©