↑↓Torrent.by
Поиск
Логин: Регистрация
Пароль: Восстановить пароль
Загрузка...

Три дня до весны (2017) HDTVRip от GeneralFilm

Скачать tri-dnya-do-vesny-2017-hdtvrip-ot-generalfilm.torrent
U Магнитная ссылка Размер: 1.33 GB Раздают: 59 Качают: 11 Добавлен: 2019-01-28 02:35:54
Три дня до весны (2017) HDTVRip от GeneralFilm

Год выпуска: 2017
Жанр:  Военный, детектив, ВОВ
Выпущено: Россия, Ленфильм
Режиссер: Александр Касаткин (I)
В ролях: Кирилл Плетнёв, Елена Лотова, Владислав Абашин, Игорь Грабузов, Юрий Ицков, Евгений Сидихин, Кирилл Назаров, Алексей Злобин, Михаил Касапов, Алексей Труфанов, Роман Синицын, Константин Фисенко, Денис Козинец, Валентина Нейморовец, Пётр Терещенко, Яков Шамшин, Борис Хаимский, Полина Красавина, Пётр Логачёв, Евгений Анисимов (II), Евгений Старцев, Анатолий Батаев, Сергей Кудрявцев, Юрий Уткин, Григорий Чабан, Валерий Филонов, Эмма Сергеева, Мария Семёнова, Александр Маслов

О фильме: Ленинград, февраль 1942 года. У офицера госбезопасности Андреева и молодого врача Марицкой есть всего 72 часа, чтобы предотвратить катастрофу. Жизнь и смерть, любовь и предательство переплетаются в стремительно развивающихся событиях…

Качество: HDTVRip
Видео: XviD, 1785 Кбит/с, 720x304
Аудио: Русский (AC3, 2 ch, 192 Кбит/с)
Продолжительность: 01:36:04
Перевод: Не требуется
Субтитры: нет

Релиз:


[+] MediaInfo

Общее
Полное имя                               : D:Tri dnja do vesny.HDTVRip.GeneralFilm.avi
Формат                                   : AVI
Формат/Информация                        : Audio Video Interleave
Размер файла                             : 1,33 Гбайт
Продолжительность                        : 1 ч. 36 м.
Общий поток                              : 1988 Кбит/сек

Видео
Идентификатор                            : 0
Формат                                   : MPEG-4 Visual
Профиль формата                          : Advanced Simple@L5
Параметр BVOP формата                    : 1
Параметр QPel формата                    : Нет
Параметр GMC формата                     : Без точки перехода
Параметр матрицы формата                 : Выборочная
Идентификатор кодека                     : XVID
Идентификатор кодека/Подсказка           : XviD
Продолжительность                        : 1 ч. 36 м.
Битрейт                                  : 1785 Кбит/сек
Ширина                                   : 720 пикселей
Высота                                   : 304 пикселя
Соотношение сторон                       : 2,35:1
Частота кадров                           : 25,000 кадров/сек
Цветовое пространство                    : YUV
Субдискретизация насыщенности            : 4:2:0
Битовая глубина                          : 8 бит
Тип развёртки                            : Прогрессивная
Метод сжатия                             : С потерями
Бит/(Пиксели*Кадры)                      : 0.326
Размер потока                            : 1,20 Гбайт (90%)
Библиотека кодирования                   : XviD 1.2.1 (UTC 2008-12-04)

Аудио
Идентификатор                            : 1
Формат                                   : AC-3
Формат/Информация                        : Audio Coding 3
Расширение режима                        : CM (complete main)
Параметр Endianness формата              : Big
Идентификатор кодека                     : 2000
Продолжительность                        : 1 ч. 36 м.
Вид битрейта                             : Постоянный
Битрейт                                  : 192 Кбит/сек
Каналы                                   : 2 канала
Расположение каналов                     : Front: L R
Частота                                  : 48,0 КГц
Частота кадров                           : 31,250 кадров/сек (1536 spf)
Битовая глубина                          : 16 бит
Метод сжатия                             : С потерями
Размер потока                            : 132 Мбайт (10%)
Выравнивание                             : Соединение по промежуткам
Продолжительность промежутка             : 32  мс. (0,80 видеокадр)




Скриншоты:
[+] Всего файлов в раздаче - 1:
Tri dnja do vesny.HDTVRip.GeneralFilm.avi1.33 GB

Показать еще раздачи по запросу весны:
2019-01-28 U Три дня до весны (2017) HDTVRip 720p от GeneralFilm 2.48 GB ↑ 160 ↓ 45
2019-01-28 U Три дня до весны (2017) HDTVRip-AVC от Files-x 1.37 GB ↑ 92 ↓ 28
2019-01-28 U Три дня до весны (2017) HDTV 1080i от GeneralFilm 3.86 GB ↑ 123 ↓ 19
2018-03-25 U VA - 200 Самых Злых Треков Весны [Sound Clinic - Bass Edition] (2018) MP3 3.01 GB ↑ 47 ↓ 61
2018-03-11 U Сборник - Философия Весны от Авторадио (2018) MP3 1.37 GB ↑ 86 ↓ 43
2017-05-26 U Три дня до весны (2017) DVDRip от Portablius 1К696.22 MB ↑ 956 ↓ 91
2017-05-24 U Три дня до весны (2017) DVDRip-AVC от ExKinoRay 1К1.20 GB ↑ 112 ↓ 167

Отзывы
Зарегистрируйтесь чтобы добавить комментарий.
Обратная связь
Copyleft ©