↑↓Torrent.by
Поиск
Логин: Регистрация
Пароль: Восстановить пароль
Загрузка...

Крик тишины (2019) HDTVRip от GeneralFilm

Скачать krik-tishiny-2019-hdtvrip-ot-generalfilm.torrent
U Магнитная ссылка Размер: 1.35 GB Раздают: 104 Качают: 75 Добавлен: 2019-01-28 06:38:20
Крик тишины (2019) HDTVRip от GeneralFilm

Год выпуска: 2019
Жанр:  Военный фильм, драма, социальная драма, экранизация
Выпущено: Россия, Мосфильм
Режиссер: Владимир Потапов
В ролях: Алина Саргина, Лева Гиршов, Артём Быстров, Светлана Смирнова-Марцинкевич, Владимир Меньшов, Надежда Маркина, Людмила Егорова, Наталия Фиссон, Сергей Паршин, Мария Кононова, Александр Жданов, Дарья Анишина, Владимир Потапов, Николай Клочьев, Александра Никитина (II), Александр Гаврилов (III), Евгений Серзин

О фильме: Блокадный Ленинград. Февраль 1942 года. Заканчивается самая страшная блокадная зима. Нина Воронова совсем отчаялась. Ее трёхлетний сын Митя ослабел, а карточки на хлеб уже отоварены на два дня вперед. Последняя надежда — эвакуация. Но с маленьким детьми не берут. Тогда женщина идет на чудовищный шаг — эвакуируется, оставив сына одного в промерзшей квартире. Во время налета мальчика спасает девочка-подросток Катя. Девочка выдает Митю за своего брата и обещает себе сделать все, чтобы Митя выжил. Несмотря ни на что…

Качество: HDTVRip
Видео: XviD, 1800 Кбит/с, 720x384
Аудио: Русский (AC3, 2 ch, 192 Кбит/с)
Продолжительность: 01:36:45
Перевод: Не требуется
Субтитры: нет

Релиз:


[+] MediaInfo

Общее
Полное имя                               : D:Krik tishiny.HDTVRip.GeneralFilm.avi
Формат                                   : AVI
Формат/Информация                        : Audio Video Interleave
Размер файла                             : 1,35 Гбайт
Продолжительность                        : 1 ч. 36 м.
Общий поток                              : 2002 Кбит/сек
Программа кодирования                    : VirtualDubMod 1.5.10.3 | www.virtualdub-fr.org || (build 2550/release)
Библиотека кодирования                   : VirtualDubMod build 2550/release

Видео
Идентификатор                            : 0
Формат                                   : MPEG-4 Visual
Профиль формата                          : Advanced Simple@L5
Параметр BVOP формата                    : 1
Параметр QPel формата                    : Нет
Параметр GMC формата                     : Без точки перехода
Параметр матрицы формата                 : Выборочная
Идентификатор кодека                     : XVID
Идентификатор кодека/Подсказка           : XviD
Продолжительность                        : 1 ч. 36 м.
Битрейт                                  : 1800 Кбит/сек
Ширина                                   : 720 пикселей
Высота                                   : 384 пикселя
Соотношение сторон                       : 1,85:1
Частота кадров                           : 25,000 кадров/сек
Цветовое пространство                    : YUV
Субдискретизация насыщенности            : 4:2:0
Битовая глубина                          : 8 бит
Тип развёртки                            : Прогрессивная
Метод сжатия                             : С потерями
Бит/(Пиксели*Кадры)                      : 0.260
Размер потока                            : 1,22 Гбайт (90%)
Библиотека кодирования                   : XviD 1.2.1 (UTC 2008-12-04)

Аудио
Идентификатор                            : 1
Формат                                   : AC-3
Формат/Информация                        : Audio Coding 3
Расширение режима                        : CM (complete main)
Параметр Endianness формата              : Big
Идентификатор кодека                     : 2000
Продолжительность                        : 1 ч. 36 м.
Вид битрейта                             : Постоянный
Битрейт                                  : 192 Кбит/сек
Каналы                                   : 2 канала
Расположение каналов                     : Front: L R
Частота                                  : 48,0 КГц
Частота кадров                           : 31,250 кадров/сек (1536 spf)
Битовая глубина                          : 16 бит
Метод сжатия                             : С потерями
Размер потока                            : 133 Мбайт (10%)
Выравнивание                             : Разделение по промежуткам
Продолжительность промежутка             : 40  мс. (1,00 видеокадр)
Время предзагрузки промежутка            : 500  мс.




Скриншоты:
[+] Всего файлов в раздаче - 1:
Krik tishiny.HDTVRip.GeneralFilm.avi1.35 GB

Показать еще раздачи по запросу крик:
2019-01-30 U Противостояние в Спэрроу-Крик / The Standoff at Sparrow Creek (2018) WEBRip 720p | L2 1.99 GB ↑ 87 ↓ 26
2019-01-30 U Крик тишины (2019) HDTVRip от Generalfilm | КПК 368.03 MB ↑ 62 ↓ 21
2019-01-29 U Крик тишины (2018) HDTV 1080p от GeneralFilm 4.29 GB ↑ 92 ↓ 39
2019-01-28 U Крик тишины (2019) HDTVRip от Files-x 1.37 GB ↑ 174 ↓ 62
2019-01-28 U Крик тишины (2019) HDTVRip-AVC от Files-x 1.37 GB ↑ 132 ↓ 50
2019-01-28 U Крик тишины (2019) HDTV 1080i 5.17 GB ↑ 147 ↓ 90
2019-01-28 U Крик тишины (2019) HDTVRip 720p от ExKinoRay 1К2.83 GB ↑ 165 ↓ 125

Отзывы
Зарегистрируйтесь чтобы добавить комментарий.
Обратная связь
Copyleft ©