↑↓Torrent.by
Поиск
Логин: Регистрация
Пароль: Восстановить пароль
Загрузка...

Три дня до весны (2017) HDTVRip 720p от GeneralFilm

Скачать tri-dnya-do-vesny-2017-hdtvrip-720p-ot-generalfilm.torrent
U Магнитная ссылка Размер: 2.48 GB Раздают: 167 Качают: 45 Добавлен: 2019-01-28 06:38:26
Три дня до весны (2017) HDTVRip 720p от GeneralFilm

Год выпуска: 2017
Жанр:  Военный, детектив, ВОВ
Выпущено: Россия, Ленфильм
Режиссер: Александр Касаткин (I)
В ролях: Кирилл Плетнёв, Елена Лотова, Владислав Абашин, Игорь Грабузов, Юрий Ицков, Евгений Сидихин, Кирилл Назаров, Алексей Злобин, Михаил Касапов, Алексей Труфанов, Роман Синицын, Константин Фисенко, Денис Козинец, Валентина Нейморовец, Пётр Терещенко, Яков Шамшин, Борис Хаимский, Полина Красавина, Пётр Логачёв, Евгений Анисимов (II), Евгений Старцев, Анатолий Батаев, Сергей Кудрявцев, Юрий Уткин, Григорий Чабан, Валерий Филонов, Эмма Сергеева, Мария Семёнова, Александр Маслов

О фильме: Ленинград, февраль 1942 года. У офицера госбезопасности Андреева и молодого врача Марицкой есть всего 72 часа, чтобы предотвратить катастрофу. Жизнь и смерть, любовь и предательство переплетаются в стремительно развивающихся событиях…

Качество: HDTVRip (720p)
Видео: MPEG-4 AVC, ~ 3500 Кбит/с, 1280x536, 25 fps
Аудио: Русский (AC3, 2 ch, 192 Кбит/с)
Продолжительность: 01:39:10
Перевод: Не требуется
Субтитры: нет

Релиз:


[+] MediaInfo

Общее
Уникальный идентификатор                 : 251964856035766251899895756761669548881 (0xBD8EAA86A8FC8F84ADD35CE6F183BB51)
Полное имя                               : D:Tri dnja do vesny.HDTVRip.(720p).GeneralFilm.mkv
Формат                                   : Matroska
Версия формата                           : Version 2
Размер файла                             : 2,48 Гбайт
Продолжительность                        : 1 ч. 36 м.
Общий поток                              : 3694 Кбит/сек
Дата кодирования                         : UTC 2019-01-27 19:17:21
Программа кодирования                    : mkvmerge v7.8.0 ('River Man') 32bit built on Apr  3 2015 12:11:22
Библиотека кодирования                   : libebml v1.3.1 + libmatroska v1.4.2

Видео
Идентификатор                            : 1
Формат                                   : AVC
Формат/Информация                        : Advanced Video Codec
Профиль формата                          : High@L4.1
Параметр CABAC формата                   : Да
Параметр ReFrames формата                : 9 кадров
Идентификатор кодека                     : V_MPEG4/ISO/AVC
Продолжительность                        : 1 ч. 36 м.
Битрейт                                  : 3500 Кбит/сек
Ширина                                   : 1280 пикселей
Высота                                   : 536 пикселей
Соотношение сторон                       : 2,40:1
Режим частоты кадров                     : Постоянный
Частота кадров                           : 25,000 кадров/сек
Цветовое пространство                    : YUV
Субдискретизация насыщенности            : 4:2:0
Битовая глубина                          : 8 бит
Тип развёртки                            : Прогрессивная
Бит/(Пиксели*Кадры)                      : 0.204
Размер потока                            : 2,30 Гбайт (93%)
Библиотека кодирования                   : x264 core 146 r2538 121396c
Настройки программы                      : cabac=1 / ref=9 / deblock=1:-2:-1 / analyse=0x3:0x113 / me=umh / subme=9 / psy=1 / psy_rd=1.00:0.15 / mixed_ref=1 / me_range=32 / chroma_me=1 / trellis=2 / 8x8dct=1 / cqm=0 / deadzone=21,11 / fast_pskip=0 / chroma_qp_offset=-3 / threads=18 / lookahead_threads=3 / sliced_threads=0 / nr=0 / decimate=1 / interlaced=0 / bluray_compat=0 / constrained_intra=0 / bframes=9 / b_pyramid=2 / b_adapt=2 / b_bias=0 / direct=1 / weightb=1 / open_gop=0 / weightp=2 / keyint=250 / keyint_min=25 / scenecut=40 / intra_refresh=0 / rc_lookahead=40 / rc=2pass / mbtree=0 / bitrate=3500 / ratetol=1.0 / qcomp=0.60 / qpmin=0 / qpmax=69 / qpstep=4 / cplxblur=20.0 / qblur=0.5 / vbv_maxrate=14000 / vbv_bufsize=14000 / nal_hrd=none / filler=0 / ip_ratio=1.40 / pb_ratio=1.30 / aq=2:1.00
Default                                  : Да
Forced                                   : Нет
Цветовой диапазон                        : Limited
Основные цвета                           : BT.709
Характеристики трансфера                 : BT.709
Коэффициенты матрицы                     : BT.709

Аудио
Идентификатор                            : 2
Формат                                   : AC-3
Формат/Информация                        : Audio Coding 3
Расширение режима                        : CM (complete main)
Параметр Endianness формата              : Big
Идентификатор кодека                     : A_AC3
Продолжительность                        : 1 ч. 36 м.
Вид битрейта                             : Постоянный
Битрейт                                  : 192 Кбит/сек
Каналы                                   : 2 канала
Расположение каналов                     : Front: L R
Частота                                  : 48,0 КГц
Частота кадров                           : 31,250 кадров/сек (1536 spf)
Битовая глубина                          : 16 бит
Метод сжатия                             : С потерями
Размер потока                            : 132 Мбайт (5%)
Default                                  : Да
Forced                                   : Нет




Скриншоты:
[+] Всего файлов в раздаче - 1:
Tri dnja do vesny.HDTVRip.(720p).GeneralFilm.mkv2.48 GB

Показать еще раздачи по запросу весны:
2019-01-28 U Три дня до весны (2017) HDTVRip-AVC от Files-x 1.37 GB ↑ 92 ↓ 28
2019-01-28 U Три дня до весны (2017) HDTVRip от GeneralFilm 1.33 GB ↑ 59 ↓ 11
2019-01-28 U Три дня до весны (2017) HDTV 1080i от GeneralFilm 3.86 GB ↑ 159 ↓ 19
2018-03-25 U VA - 200 Самых Злых Треков Весны [Sound Clinic - Bass Edition] (2018) MP3 3.01 GB ↑ 47 ↓ 61
2018-03-11 U Сборник - Философия Весны от Авторадио (2018) MP3 1.37 GB ↑ 86 ↓ 44
2017-05-26 U Три дня до весны (2017) DVDRip от Portablius 1К696.22 MB ↑ 956 ↓ 91
2017-05-24 U Три дня до весны (2017) DVDRip-AVC от ExKinoRay 1К1.20 GB ↑ 112 ↓ 167

Отзывы
Зарегистрируйтесь чтобы добавить комментарий.
Обратная связь
Copyleft ©