↑↓Torrent.by
Поиск
Логин: Регистрация
Пароль: Восстановить пароль
Загрузка...

Крик тишины (2018) HDTV 1080p от GeneralFilm

Скачать krik-tishiny-2018-hdtv-1080p-ot-generalfilm.torrent
U Магнитная ссылка Размер: 4.29 GB Раздают: 180 Качают: 41 Добавлен: 2019-01-29 07:58:17
Крик тишины (2018) HDTV 1080p от GeneralFilm

Оригинальное название: Крик тишины
Год выхода: 2018
Жанр: Драма, история
Режиссер: Владимир Потапов
В ролях: Алина Саргина, Лева Гиршов, Артём Быстров, Светлана Смирнова-Марцинкевич, Владимир Меньшов, Надежда Маркина, Людмила Егорова, Наталия Фиссон, Сергей Паршин, Мария Кононова, Александр Жданов, Дарья Анишина, Владимир Потапов, Николай Клочьев, Александра Никитина (II), Александр Гаврилов (III), Евгений Серзин

О фильме:
Блокадный Ленинград. Февраль 1942 года. Заканчивается самая страшная блокадная зима. Нина Воронова совсем отчаялась. Ее трёхлетний сын Митя ослабел, а карточки на хлеб уже отоварены на два дня вперед. Последняя надежда — эвакуация. Но с маленьким детьми не берут. Тогда женщина идет на чудовищный шаг — эвакуируется, оставив сына одного в промерзшей квартире. Во время налета мальчика спасает девочка-подросток Катя. Девочка выдает Митю за своего брата и обещает себе сделать все, чтобы Митя выжил. Несмотря ни на что…

Страна: Россия
Студия: Мосфильм
Продолжительность: 01:36:45

Качество HDTV 1080p Запись с
Видео: AVC, 1920x1080 (16:9), 25.000 fps, 7 051 Kbps (0.136 bit/pixel)
Аудио: AC3 / 2.0 / 48 kHz / 192 kbps
Перевод: Не требуется
Cубтитры: нет
Релиз:
[+] MediaInfo

General
Unique ID                   : 202552216748886151413004854710726070005 (0x98622350F1DD474C9DBDFD17DF048EF5)
Complete name               :Krik tishiny.2018.HDTV 1080p.by.White Smoke.R.G.Generalfilm.mkv
Format                      : Matroska
Format version              : Version 4 / Version 2
File size                   : 4.29 GiB
Duration                    : 1 h 36 min
Overall bit rate mode       : Constant
Overall bit rate            : 6 350 kb/s
Movie name                  : Krik tishiny.2018.HDTV 1080p.by.White Smoke.R.G.Generalfilm.mkv
Encoded date                : UTC 2019-01-28 16:01:34
Writing application         : mkvmerge v6.8.0 ('Theme for Great Cities') 64bit built on Mar  2 2014 21:34:26
Writing library             : libebml v1.3.0 + libmatroska v1.4.1

Video
ID                          : 1
Format                      : AVC
Format/Info                 : Advanced Video Codec
Format profile              : High@L4.1
Format settings             : CABAC / 3 Ref Frames
Format settings, CABAC      : Yes
Format settings, ReFrames   : 3 frames
Codec ID                    : V_MPEG4/ISO/AVC
Duration                    : 1 h 36 min
Bit rate mode               : Constant
Bit rate                    : 6 032 kb/s
Nominal bit rate            : 7 051 kb/s
Width                       : 1 920 pixels
Height                      : 1 080 pixels
Display aspect ratio        : 16:9
Frame rate mode             : Constant
Frame rate                  : 25.000 FPS
Standard                    : PAL
Color space                 : YUV
Chroma subsampling          : 4:2:0
Bit depth                   : 8 bits
Scan type                   : Progressive
Bits/(Pixel*Frame)          : 0.116
Stream size                 : 4.08 GiB (95%)
Default                     : Yes
Forced                      : No
Color range                 : Limited
Color primaries             : BT.709
Transfer characteristics    : BT.709
Matrix coefficients         : BT.709

Audio
ID                          : 2
Format                      : AC-3
Format/Info                 : Audio Coding 3
Commercial name             : Dolby Digital
Codec ID                    : A_AC3
Duration                    : 1 h 36 min
Bit rate mode               : Constant
Bit rate                    : 192 kb/s
Channel(s)                  : 2 channels
Channel layout              : L R
Sampling rate               : 48.0 kHz
Frame rate                  : 31.250 FPS (1536 SPF)
Bit depth                   : 16 bits
Compression mode            : Lossy
Stream size                 : 133 MiB (3%)
Service kind                : Complete Main
Default                     : Yes
Forced                      : No



Скриншоты:
[+] Всего файлов в раздаче - 1:
Krik tishiny.2018.HDTV 1080p.by.White Smoke.R.G.Generalfilm.mkv4.29 GB

Показать еще раздачи по запросу крик:
2019-01-30 U Противостояние в Спэрроу-Крик / The Standoff at Sparrow Creek (2018) WEBRip 720p | L2 1.99 GB ↑ 88 ↓ 26
2019-01-30 U Крик тишины (2019) HDTVRip от Generalfilm | КПК 368.03 MB ↑ 82 ↓ 22
2019-01-28 U Крик тишины (2019) HDTVRip от Files-x 1.37 GB ↑ 266 ↓ 63
2019-01-28 U Крик тишины (2019) HDTVRip-AVC от Files-x 1.37 GB ↑ 161 ↓ 51
2019-01-28 U Крик тишины (2019) HDTV 1080i 5.17 GB ↑ 238 ↓ 91
2019-01-28 U Крик тишины (2019) HDTVRip 720p от ExKinoRay 1К2.83 GB ↑ 168 ↓ 128
2019-01-28 U Крик тишины (2019) HDTVRip от GeneralFilm 1.35 GB ↑ 106 ↓ 75

Отзывы
Зарегистрируйтесь чтобы добавить комментарий.
Обратная связь
Copyleft ©