↑↓Torrent.by
Поиск
Логин: Регистрация
Пароль: Восстановить пароль
Загрузка...

Вдовы / Widows (2018) BDRip-AVC от OlLanDGroup | iTunes

Скачать vdovy-widows-2018-bdrip-avc-ot-ollandgroup-itunes.torrent
U Магнитная ссылка Размер: 2.41 GB Раздают: 133 Качают: 72 Добавлен: 2019-02-01 07:09:28
Вдовы / Widows (2018) BDRip-AVC от OlLanDGroup | iTunes

Вдовы / Widows
«Лишённые всего, способные на всё»

Год выпуска: 2018
Страна: Великобритания, США
Производство: Regency Enterprises, See-Saw Films, Film4
Жанр:  Триллер, драма, мелодрама, криминал

Режиссёр: Стив МакКуин
В ролях: Виола Дэвис, Лиам Нисон, Джон Бернтал, Мануэль Рульфо, Коберн Госс, Мишель Родригес, Алехандро Вердин, Бейли Рюз Уолтерс, Элизабет Дебики, Кэрри Кун, Синтия Эриво, Колин Фаррелл, Дэниэл Калуя, Роберт Дювалл

Перевод: Дублированный | [iTunes]
Субтитры: Русские (форс., полные), Английские (полные, SDH)
Реклама: Отсутствует

Описание: В центре сюжета фильма находятся четыре женщины, которых связывает между собой только работа их мужей. Все они были профессиональными грабителями и однажды в ходе очередного налета их всех убили. Смерть любимых становится не единственной проблемой героинь. Бывшие коллеги мужей требуют вернуть долг в 2 миллиона долларов и в итоге женщины решают пойти на дело, план которого одной из них оставил ее муж. А параллельно с этим они собираются выяснить, кто же подставил их мужей.

Качество: BDRip-AVC | BluRay Disc | Widows.2018.1080p.Blu-ray.AVC.DTS-HD.MA.7.1-HDChina
Продолжительность: 02:09:34

Формат: MKV
Видео кодек: MPEG-4 AVC
Аудио кодек: AC3
Видео: 1024x428 (2.40:1), 23,976 fps, x264 ~1 826 kbps avg, 0.174 bit/pixel
Аудио #1: 48 kHz, AC3 Dolby Digital Plus, 3/2 (L,C,R,l,r) + LFE ch, ~384.00 kbps avg | RUS (iTunes)
Аудио #2: 48 kHz, AC3 Dolby Digital Plus, 3/2 (L,C,R,l,r) + LFE ch, ~448.00 kbps avg | ENG

Дата премьеры (мир): 8 сентября 2018
Дата премьеры (РФ): 22 ноября 2018, «Двадцатый Век Фокс СНГ»
Цифровой релиз: 1 февраля 2019, «Двадцатый Век Фокс СНГ»

Релиз:


[+] MediaInfo

Общее
Уникальный идентификатор                 : 100943315983436478442872371780539861064 (0x4BF0F9B9F698D0C04223DD0FA88F4848)
Полное имя                               : F:OlLanDGroupWidows.2018.BDRip(AVC).OlLanDGroup.mkv
Формат                                   : Matroska
Версия формата                           : Version 4 / Version 2
Размер файла                             : 2,41 Гбайт
Продолжительность                        : 2 ч. 9 м.
Общий поток                              : 2658 Кбит/сек
Название фильма                          : Widows 2018    #TorpedoUK#
Дата кодирования                         : UTC 2019-02-01 02:43:50
Программа кодирования                    : mkvmerge v29.0.0 ('Like It Or Not') 64-bit
Библиотека кодирования                   : libebml v1.3.6 + libmatroska v1.4.9

Видео
Идентификатор                            : 1
Формат                                   : AVC
Формат/Информация                        : Advanced Video Codec
Профиль формата                          : High@L4.1
Параметр CABAC формата                   : Да
Параметр ReFrames формата                : 10 кадров
Идентификатор кодека                     : V_MPEG4/ISO/AVC
Продолжительность                        : 2 ч. 9 м.
Битрейт                                  : 1826 Кбит/сек
Ширина                                   : 1024 пикселя
Высота                                   : 428 пикселей
Соотношение сторон                       : 2,40:1
Режим частоты кадров                     : Постоянный
Частота кадров                           : 23,976 (24000/1001) кадра/сек
Цветовое пространство                    : YUV
Субдискретизация насыщенности            : 4:2:0
Битовая глубина                          : 8 бит
Тип развёртки                            : Прогрессивная
Бит/(Пиксели*Кадры)                      : 0.174
Размер потока                            : 1,65 Гбайт (69%)
Библиотека кодирования                   : x264 core 146 r2538 121396c
Настройки программы                      : cabac=1 / ref=10 / deblock=1:-3:-2 / analyse=0x3:0x113 / me=umh / subme=11 / psy=1 / psy_rd=0.95:0.07 / mixed_ref=1 / me_range=48 / chroma_me=1 / trellis=2 / 8x8dct=1 / cqm=0 / deadzone=21,11 / fast_pskip=1 / chroma_qp_offset=-3 / threads=6 / lookahead_threads=1 / sliced_threads=0 / nr=0 / decimate=1 / interlaced=0 / bluray_compat=0 / constrained_intra=0 / bframes=11 / b_pyramid=2 / b_adapt=2 / b_bias=0 / direct=3 / weightb=1 / open_gop=0 / weightp=2 / keyint=240 / keyint_min=23 / scenecut=40 / intra_refresh=0 / rc_lookahead=40 / rc=2pass / mbtree=0 / bitrate=1826 / ratetol=1.0 / qcomp=0.60 / qpmin=0 / qpmax=69 / qpstep=4 / cplxblur=20.0 / qblur=0.5 / vbv_maxrate=50000 / vbv_bufsize=62500 / nal_hrd=none / filler=0 / ip_ratio=1.40 / pb_ratio=1.30 / aq=1:1.00
Язык                                     : English
Default                                  : Да
Forced                                   : Нет

Аудио #1
Идентификатор                            : 2
Формат                                   : AC-3
Формат/Информация                        : Audio Coding 3
Расширение режима                        : CM (complete main)
Параметр Endianness формата              : Big
Идентификатор кодека                     : A_AC3
Продолжительность                        : 2 ч. 9 м.
Вид битрейта                             : Постоянный
Битрейт                                  : 384 Кбит/сек
Каналы                                   : 6 каналов
Расположение каналов                     : Front: L C R, Side: L R, LFE
Частота                                  : 48,0 КГц
Частота кадров                           : 31,250 кадров/сек (1536 spf)
Битовая глубина                          : 16 бит
Метод сжатия                             : С потерями
Размер потока                            : 356 Мбайт (14%)
Заголовок                                : DUB [iTunes]
Язык                                     : Russian
Default                                  : Да
Forced                                   : Нет

Аудио #2
Идентификатор                            : 3
Формат                                   : AC-3
Формат/Информация                        : Audio Coding 3
Расширение режима                        : CM (complete main)
Параметр Endianness формата              : Big
Идентификатор кодека                     : A_AC3
Продолжительность                        : 2 ч. 9 м.
Вид битрейта                             : Постоянный
Битрейт                                  : 448 Кбит/сек
Каналы                                   : 6 каналов
Расположение каналов                     : Front: L C R, Side: L R, LFE
Частота                                  : 48,0 КГц
Частота кадров                           : 31,250 кадров/сек (1536 spf)
Битовая глубина                          : 16 бит
Метод сжатия                             : С потерями
Размер потока                            : 415 Мбайт (17%)
Заголовок                                : [Original]
Язык                                     : English
Default                                  : Нет
Forced                                   : Нет

Текст #1
Идентификатор                            : 4
Формат                                   : UTF-8
Идентификатор кодека                     : S_TEXT/UTF8
Идентификатор кодека/Информация          : UTF-8 Plain Text
Продолжительность                        : 2 ч. 4 м.
Битрейт                                  : 0 бит/сек
Count of elements                        : 12
Размер потока                            : 546 байт (0%)
Заголовок                                : Forced
Язык                                     : Russian
Default                                  : Да
Forced                                   : Нет

Текст #2
Идентификатор                            : 5
Формат                                   : UTF-8
Идентификатор кодека                     : S_TEXT/UTF8
Идентификатор кодека/Информация          : UTF-8 Plain Text
Продолжительность                        : 2 ч. 8 м.
Битрейт                                  : 92 бит/сек
Count of elements                        : 1518
Размер потока                            : 86,7 Кбайт (0%)
Заголовок                                : Full
Язык                                     : Russian
Default                                  : Нет
Forced                                   : Нет

Текст #3
Идентификатор                            : 6
Формат                                   : UTF-8
Идентификатор кодека                     : S_TEXT/UTF8
Идентификатор кодека/Информация          : UTF-8 Plain Text
Продолжительность                        : 2 ч. 5 м.
Битрейт                                  : 63 бит/сек
Count of elements                        : 1895
Размер потока                            : 58,7 Кбайт (0%)
Заголовок                                : Full
Язык                                     : English
Default                                  : Нет
Forced                                   : Нет

Текст #4
Идентификатор                            : 7
Формат                                   : UTF-8
Идентификатор кодека                     : S_TEXT/UTF8
Идентификатор кодека/Информация          : UTF-8 Plain Text
Продолжительность                        : 2 ч. 5 м.
Битрейт                                  : 71 бит/сек
Count of elements                        : 2115
Размер потока                            : 65,8 Кбайт (0%)
Заголовок                                : SDH
Язык                                     : English
Default                                  : Нет
Forced                                   : Нет

Меню
00:00:00.000                             : en:Chapter 01
00:03:41.388                             : en:Chapter 02
00:09:00.415                             : en:Chapter 03
00:14:14.604                             : en:Chapter 04
00:21:43.010                             : en:Chapter 05
00:28:14.401                             : en:Chapter 06
00:36:07.082                             : en:Chapter 07
00:41:01.751                             : en:Chapter 08
00:45:58.673                             : en:Chapter 09
00:53:18.070                             : en:Chapter 10
00:58:11.321                             : en:Chapter 11
01:03:51.703                             : en:Chapter 12
01:09:56.776                             : en:Chapter 13
01:12:53.786                             : en:Chapter 14
01:17:21.846                             : en:Chapter 15
01:26:19.674                             : en:Chapter 16
01:33:29.312                             : en:Chapter 17
01:35:53.373                             : en:Chapter 18
01:39:10.486                             : en:Chapter 19
01:42:20.092                             : en:Chapter 20
01:46:12.408                             : en:Chapter 21
01:53:14.121                             : en:Chapter 22
01:58:18.675                             : en:Chapter 23
02:03:48.671                             : en:Chapter 24



Скриншоты:
[+] Всего файлов в раздаче - 1:
Widows.2018.BDRip(AVC).OlLanDGroup.mkv2.41 GB

Показать еще раздачи по запросу вдовы:
2019-02-10 U Вдовы / Widows (2018) BDRip от ExKinoRay | Лицензия 1К1.46 GB ↑ 55 ↓ 20
2019-02-10 U Вдовы / Widows (2018) BDRip от ExKinoRay | Лицензия 2.18 GB ↑ 44 ↓ 34
2019-02-10 U Вдовы / Widows (2018) BDRip 720p от селезень | Лицензия 9.53 GB ↑ 49 ↓ 16
2019-02-10 U Вдовы / Widows (2018) HDRip-AVC | Лицензия 744.21 MB ↑ 50 ↓ 13
2019-02-10 U Вдовы / Widows (2018) BDRip 1080p от селезень | Лицензия 14.19 GB ↑ 74 ↓ 16
2019-02-09 U Вдовы / Widows (2018) BDRip-AVC от OlLanDGroup | Лицензия 2.06 GB ↑ 95 ↓ 49
2019-02-09 U Вдовы / Widows (2018) BDRip от MegaPeer | Лицензия 2.18 GB ↑ 78 ↓ 62

Отзывы
Зарегистрируйтесь чтобы добавить комментарий.
Обратная связь
Copyleft ©