↑↓Torrent.by
Поиск
Логин: Регистрация
Пароль: Восстановить пароль
Загрузка...

Щелкунчик и четыре королевства / The Nutcracker and the Four Realms (2018) BDRip-AVC от OlLanDGroup | iTunes

Скачать schelkunchik-i-chetyre-korolevstva-the-nutcracker-and-four-realms-2018-bdrip-avc-ot-ollandgroup-itunes.torrent
U Магнитная ссылка Размер: 2.10 GB Раздают: 185 Качают: 66 Добавлен: 2019-02-01 11:09:55
Щелкунчик и четыре королевства / The Nutcracker and the Four Realms (2018) BDRip-AVC от OlLanDGroup | iTunes

Щелкунчик и четыре королевства / The Nutcracker and the Four Realms
«Пришло время открыть тайну»

Год выпуска: 2018
Страна: США
Производство: The Mark Gordon Company, Walt Disney Pictures
Жанр:  Фэнтези, приключения, семейный

Режиссёр: Лассе Халльстрём, Джо Джонстон
В ролях: МакКензи Фой, Том Свит, Мира Сайал, Элли Бамбер, Мэттью Макфэдьен, Ник Мохаммед, Чарльз Стритер, Морган Фримен, Джейден Фовора-Рыцарь, Принс

Перевод: Дублированный | [iTunes]
Субтитры: Русские (полные, SDH), Английские (полные, SDH)
Реклама: Отсутствует

Описание: Получив необычный подарок на Рождество, юная Клара отправляется в захватывающее путешествие по загадочным местам: Стране Снегов, Стране Цветов и Стране Сладостей. Но девушке нужно попасть и в четвертое королевство, где ей придется столкнуться с целой армией мышей во главе с невероятно опасным Мышиным Королем.

Качество: BDRip-AVC | BluRay Disc | The.Nutcracker.and.the.Four.Realms.2018.COMPLETE.BLURAY-COASTER
Продолжительность: 01:39:16

Формат: MKV
Видео кодек: MPEG-4 AVC
Аудио кодек: AC3
Видео: 1024x554 (1.85:1), 23,976 fps, x264 ~2 193 kbps avg, 0.161 bit/pixel
Аудио #1: 48 kHz, AC3 Dolby Digital Plus, 3/2 (L,C,R,l,r) + LFE ch, ~384.00 kbps avg | RUS (iTunes)
Аудио #2: 48 kHz, AC3 Dolby Digital Plus, 3/2 (L,C,R,l,r) + LFE ch, ~448.00 kbps avg | ENG

Дата премьеры (мир): 26 октября 2018
Дата премьеры (РФ): 8 декабря 2018, «WDSSPR»
Цифровой релиз: 1 февраля 2019, «Уолт Дисней Компани СНГ»

Релиз:


[+] MediaInfo

Общее
Уникальный идентификатор                 : 238623976994803105156981224386101587231 (0xB3854E67FE30D106C029D32A86192D1F)
Полное имя                               : F:OlLanDGroupThe.Nutcracker.and.the.Four.Realms.2018.BDRip(AVC).OlLanDGroup.mkv
Формат                                   : Matroska
Версия формата                           : Version 4 / Version 2
Размер файла                             : 2,10 Гбайт
Продолжительность                        : 1 ч. 39 м.
Общий поток                              : 3028 Кбит/сек
Название фильма                          : The.Nutcracker.and.the.Four.Realms.2018   #TorpedoUK#
Дата кодирования                         : UTC 2019-02-01 03:31:22
Программа кодирования                    : mkvmerge v29.0.0 ('Like It Or Not') 64-bit
Библиотека кодирования                   : libebml v1.3.6 + libmatroska v1.4.9

Видео
Идентификатор                            : 1
Формат                                   : AVC
Формат/Информация                        : Advanced Video Codec
Профиль формата                          : High@L4.1
Параметр CABAC формата                   : Да
Параметр ReFrames формата                : 10 кадров
Идентификатор кодека                     : V_MPEG4/ISO/AVC
Продолжительность                        : 1 ч. 39 м.
Битрейт                                  : 2193 Кбит/сек
Ширина                                   : 1024 пикселя
Высота                                   : 554 пикселя
Соотношение сторон                       : 1,85:1
Режим частоты кадров                     : Постоянный
Частота кадров                           : 23,976 (24000/1001) кадра/сек
Цветовое пространство                    : YUV
Субдискретизация насыщенности            : 4:2:0
Битовая глубина                          : 8 бит
Тип развёртки                            : Прогрессивная
Бит/(Пиксели*Кадры)                      : 0.161
Размер потока                            : 1,52 Гбайт (72%)
Библиотека кодирования                   : x264 core 146 r2538 121396c
Настройки программы                      : cabac=1 / ref=10 / deblock=1:-3:-3 / analyse=0x3:0x113 / me=umh / subme=11 / psy=1 / psy_rd=0.99:0.04 / mixed_ref=1 / me_range=48 / chroma_me=1 / trellis=2 / 8x8dct=1 / cqm=0 / deadzone=21,11 / fast_pskip=1 / chroma_qp_offset=-3 / threads=6 / lookahead_threads=1 / sliced_threads=0 / nr=0 / decimate=1 / interlaced=0 / bluray_compat=0 / constrained_intra=0 / bframes=11 / b_pyramid=2 / b_adapt=2 / b_bias=0 / direct=3 / weightb=1 / open_gop=0 / weightp=2 / keyint=240 / keyint_min=23 / scenecut=40 / intra_refresh=0 / rc_lookahead=40 / rc=2pass / mbtree=0 / bitrate=2193 / ratetol=1.0 / qcomp=0.60 / qpmin=0 / qpmax=69 / qpstep=4 / cplxblur=20.0 / qblur=0.5 / vbv_maxrate=50000 / vbv_bufsize=62500 / nal_hrd=none / filler=0 / ip_ratio=1.40 / pb_ratio=1.30 / aq=1:1.00
Язык                                     : English
Default                                  : Да
Forced                                   : Нет

Аудио #1
Идентификатор                            : 2
Формат                                   : AC-3
Формат/Информация                        : Audio Coding 3
Расширение режима                        : CM (complete main)
Параметр Endianness формата              : Big
Идентификатор кодека                     : A_AC3
Продолжительность                        : 1 ч. 39 м.
Вид битрейта                             : Постоянный
Битрейт                                  : 384 Кбит/сек
Каналы                                   : 6 каналов
Расположение каналов                     : Front: L C R, Side: L R, LFE
Частота                                  : 48,0 КГц
Частота кадров                           : 31,250 кадров/сек (1536 spf)
Битовая глубина                          : 16 бит
Метод сжатия                             : С потерями
Размер потока                            : 273 Мбайт (13%)
Заголовок                                : DUB [iTunes]
Язык                                     : Russian
Default                                  : Да
Forced                                   : Нет

Аудио #2
Идентификатор                            : 3
Формат                                   : AC-3
Формат/Информация                        : Audio Coding 3
Расширение режима                        : CM (complete main)
Параметр Endianness формата              : Big
Идентификатор кодека                     : A_AC3
Продолжительность                        : 1 ч. 39 м.
Вид битрейта                             : Постоянный
Битрейт                                  : 448 Кбит/сек
Каналы                                   : 6 каналов
Расположение каналов                     : Front: L C R, Side: L R, LFE
Частота                                  : 48,0 КГц
Частота кадров                           : 31,250 кадров/сек (1536 spf)
Битовая глубина                          : 16 бит
Метод сжатия                             : С потерями
Размер потока                            : 318 Мбайт (15%)
Заголовок                                : [Original]
Язык                                     : English
Default                                  : Нет
Forced                                   : Нет

Текст #1
Идентификатор                            : 4
Формат                                   : UTF-8
Идентификатор кодека                     : S_TEXT/UTF8
Идентификатор кодека/Информация          : UTF-8 Plain Text
Продолжительность                        : 1 ч. 27 м.
Битрейт                                  : 72 бит/сек
Count of elements                        : 1043
Размер потока                            : 46,6 Кбайт (0%)
Заголовок                                : Full
Язык                                     : Russian
Default                                  : Нет
Forced                                   : Нет

Текст #2
Идентификатор                            : 5
Формат                                   : UTF-8
Идентификатор кодека                     : S_TEXT/UTF8
Идентификатор кодека/Информация          : UTF-8 Plain Text
Продолжительность                        : 1 ч. 36 м.
Битрейт                                  : 72 бит/сек
Count of elements                        : 1339
Размер потока                            : 51,4 Кбайт (0%)
Заголовок                                : SDH
Язык                                     : Russian
Default                                  : Нет
Forced                                   : Нет

Текст #3
Идентификатор                            : 6
Формат                                   : UTF-8
Идентификатор кодека                     : S_TEXT/UTF8
Идентификатор кодека/Информация          : UTF-8 Plain Text
Продолжительность                        : 1 ч. 27 м.
Битрейт                                  : 43 бит/сек
Count of elements                        : 1096
Размер потока                            : 27,7 Кбайт (0%)
Заголовок                                : Full
Язык                                     : English
Default                                  : Нет
Forced                                   : Нет

Текст #4
Идентификатор                            : 7
Формат                                   : UTF-8
Идентификатор кодека                     : S_TEXT/UTF8
Идентификатор кодека/Информация          : UTF-8 Plain Text
Продолжительность                        : 1 ч. 36 м.
Битрейт                                  : 45 бит/сек
Count of elements                        : 1338
Размер потока                            : 32,4 Кбайт (0%)
Заголовок                                : SDH
Язык                                     : English
Default                                  : Нет
Forced                                   : Нет

Меню
00:00:00.000                             : :Chapter 01
00:08:39.101                             : :Chapter 02
00:16:47.089                             : :Chapter 03
00:25:37.744                             : :Chapter 04
00:34:20.892                             : :Chapter 05
00:43:28.397                             : :Chapter 06
00:48:31.992                             : :Chapter 07
00:56:07.655                             : :Chapter 08
00:59:09.546                             : :Chapter 09
01:04:57.310                             : :Chapter 10
01:11:49.722                             : :Chapter 11
01:18:10.519                             : :Chapter 12
01:22:04.002                             : :Chapter 13
01:30:06.651                             : :Chapter 14
01:39:14.073                             : :Chapter 15



Скриншоты:
[+] Всего файлов в раздаче - 1:
The.Nutcracker.and.the.Four.Realms.2018.BDRip(AVC).OlLanDGroup.mkv2.10 GB

Показать еще раздачи по запросу щелкунчик:
2019-02-07 U Щелкунчик и четыре королевства / The Nutcracker and the Four Realms (2018) HDRip от Generalfilm | КПК | iTunes 377.65 MB ↑ 19 ↓ 9
2019-02-04 U Щелкунчик и четыре королевства / The Nutcracker and the Four Realms (2018) HDRip от MegaPeer | iTunes 745.21 MB ↑ 22 ↓ 9
2019-02-03 U Щелкунчик и четыре королевства / The Nutcracker and the Four Realms (2018) BDRip-AVC от HELLYWOOD | iTunes 2.14 GB ↑ 170 ↓ 104
2019-02-03 U Щелкунчик и четыре королевства / The Nutcracker and the Four Realms (2018) HDRip от Scarabey | iTunes 1.40 GB ↑ 100 ↓ 27
2019-02-02 U Щелкунчик и четыре королевства / The Nutcracker and the Four Realms (2018) BDRip-HEVC 1080p от M@kSIMus | iTunes 6.61 GB ↑ 127 ↓ 114
2019-02-02 U Щелкунчик и четыре королевства / The Nutcracker and the Four Realms (2018) BDRip-AVC от HELLYWOOD | iTunes 1.42 GB ↑ 111 ↓ 56
2019-02-02 U Щелкунчик и четыре королевства / The Nutcracker and the Four Realms (2018) UHD BDRemux 2160p | HDR | iTunes 56.31 GB ↑ 40 ↓ 32

Отзывы
Зарегистрируйтесь чтобы добавить комментарий.
Обратная связь
Copyleft ©