↑↓Torrent.by
Поиск
Логин: Регистрация
Пароль: Восстановить пароль

Полярный / Polar (2019) WEBRip 1080p от Dalemake | IdeaFilm

Скачать polyarnyy-polar-2019-webrip-1080p-ot-dalemake-ideafilm.torrent
U Магнитная ссылка Размер: 13.27 GB Раздают: 307 Качают: 260 Добавлен: 2019-02-01 18:48:58
Полярный / Polar (2019) WEBRip 1080p от Dalemake | IdeaFilm

Название: Полярный
Оригинальное название: Polar
Год выхода: 2019
Страна: США
Производство: Constantin Film, Dark Horse Entertainment
Жанр: боевик, криминал
Продолжительность: 01:58:53
Перевод: Профессиональный (многоголосый закадровый) IdeaFilm
Субтитры: Русские (полные), Английские (форс., полные, SDH)
Оригинальная аудиодорожка: Английская

Режиссер:
Йонас Окерлунд / Jonas Åkerlund

В ролях:
Мадс Миккельсен, Кэтрин Уинник, Джонни Ноксвилл, Ричард Дрейфусс, Ванесса Энн Хадженс, Руби О. Фи, Мэтт Лукас, Сима Фишер, Роберт Мэйллет, Фэй Рен, Инга Кадранел

О фильме:
Дункан Визла — один из самых опасных киллеров в мире, известный под прозвищем Черный Кайзер. Когда-то он убивал людей по всему свету, но теперь наслаждается мирным существованием и давно уже не брал в руки оружие.
Только вот бывший клиент, с которым у Дункана произошел небольшой конфликт, не собирается забывать старые обиды. В скором времени мирной жизни бывшего киллера придет конец, когда за Дунканом начнет охоту армия из молодых и беспощадных убийц. Для спасения жизни ему предстоит использовать все полученные за долгие годы заказных убийств навыки и знания.

 |  | РЕКЛАМЫ НЕТ! | Ненормативная лексика

Файл
Качество: WEBRip 1080p
Формат: MKV
Видео кодек: x264
Аудио кодек: AC3
Видео: 1920x960 (2,000), 23.976 fps, x264 ~14800 kbps avg, 0.335 bit/pixel
Аудио #1: 48 kHz, AC3 Dolby Digital, 3/2 (L,C,R,l,r) + LFE ch, ~383 kbps avg (RUS)
Аудио #2: 48 kHz, E-AC3 Dolby Digital, 3/2 (L,C,R,l,r) + LFE ch, ~448 kbps (ENG)
Формат субтитров: Softsub (.srt*)


[+] MediaInfo

Общее
Полное имя                               : D:Polar_2019_WEBRip_1080p_IdeaFilm_by_Dalemake.mkv
Формат                                   : Matroska
Версия формата                           : Version 4 / Version 2
Размер файла                             : 13,3 Гбайт
Продолжительность                        : 1 ч. 58 м.
Общий поток                              : 16,0 Мбит/сек
Дата кодирования                         : UTC 2019-01-31 19:16:24
Программа кодирования                    : mkvmerge v7.8.0 ('River Man') 32bit built on Apr  3 2015 12:11:22
Библиотека кодирования                   : libebml v1.3.1 + libmatroska v1.4.2
DURATION                                 : 01:58:53.472000000
NUMBER_OF_FRAMES                         : 222921
NUMBER_OF_BYTES                          : 342406656
_STATISTICS_WRITING_APP                  : mkvmerge v7.8.0 ('River Man') 32bit built on Apr  3 2015 12:11:22
_STATISTICS_WRITING_DATE_UTC             : 2019-01-31 19:16:24
_STATISTICS_TAGS                         : BPS DURATION NUMBER_OF_FRAMES NUMBER_OF_BYTES

Видео
Идентификатор                            : 1
Формат                                   : AVC
Формат/Информация                        : Advanced Video Codec
Профиль формата                          : High@L4.1
Параметр CABAC формата                   : Да
Параметр ReFrames формата                : 4 кадра
Идентификатор кодека                     : V_MPEG4/ISO/AVC
Продолжительность                        : 1 ч. 58 м.
Битрейт                                  : 14,8 Мбит/сек
Ширина                                   : 1920 пикселей
Высота                                   : 960 пикселей
Соотношение сторон                       : 2,000
Частота кадров                           : 23,976 кадра/сек
Цветовое пространство                    : YUV
Субдискретизация насыщенности            : 4:2:0
Битовая глубина                          : 8 бит
Тип развёртки                            : Прогрессивная
Бит/(Пиксели*Кадры)                      : 0.335
Размер потока                            : 12,3 Гбайт (93%)
Библиотека кодирования                   : x264 core 157 r2935+3 (master: 545de2f / tmod: 0f48dd4) [X86_64]
Настройки программы                      : cabac=1 / ref=4 / deblock=1:-3:-3 / analyse=0x3:0x133 / me=umh / subme=11 / psy=1 / psy_rd=1.05:0.15 / mixed_ref=1 / me_range=48 / chroma_me=1 / trellis=2 / 8x8dct=1 / cqm=0 / deadzone=6,6 / fast_pskip=0 / chroma_qp_offset=-3 / threads=30 / lookahead_threads=7 / sliced_threads=0 / nr=0 / decimate=0 / interlaced=0 / bluray_compat=0 / constrained_intra=0 / bframes=10 / b_pyramid=2 / b_adapt=2 / b_bias=0 / direct=3 / weightb=1 / open_gop=0 / weightp=2 / keyint=250 / keyint_min=23 / scenecut=40 / intra_refresh=0 / rc_lookahead=60 / rc=crf / mbtree=0 / crf=17.0 / qcomp=0.70 / qpmin=0 / qpmax=69 / qpstep=4 / vbv_maxrate=62500 / vbv_bufsize=78125 / crf_max=0.0 / nal_hrd=none / filler=0 / ip_ratio=1.25 / pb_ratio=1.20 / aq=3:0.70
Язык                                     : English
Default                                  : Да
Forced                                   : Нет
DURATION                                 : 01:58:19.092000000
NUMBER_OF_FRAMES                         : 170208
NUMBER_OF_BYTES                          : 13503115719
_STATISTICS_WRITING_APP                  : mkvmerge v7.8.0 ('River Man') 32bit built on Apr  3 2015 12:11:22
_STATISTICS_WRITING_DATE_UTC             : 2019-01-31 19:16:24
_STATISTICS_TAGS                         : BPS DURATION NUMBER_OF_FRAMES NUMBER_OF_BYTES

Аудио #1
Идентификатор                            : 2
Формат                                   : AC-3
Формат/Информация                        : Audio Coding 3
Расширение режима                        : CM (complete main)
Параметр Endianness формата              : Big
Идентификатор кодека                     : A_AC3
Продолжительность                        : 1 ч. 58 м.
Вид битрейта                             : Постоянный
Битрейт                                  : 384 Кбит/сек
Каналы                                   : 6 каналов
Расположение каналов                     : Front: L C R, Side: L R, LFE
Частота                                  : 48,0 КГц
Битовая глубина                          : 16 бит
Метод сжатия                             : С потерями
Размер потока                            : 327 Мбайт (2%)
Заголовок                                : MVO - IdeaFilm
Язык                                     : Russian
Default                                  : Да
Forced                                   : Нет

Аудио #2
Идентификатор                            : 3
Формат                                   : E-AC-3
Формат/Информация                        : Audio Coding 3
Параметр Endianness формата              : Big
Идентификатор кодека                     : A_EAC3
Продолжительность                        : 1 ч. 58 м.
Вид битрейта                             : Постоянный
Битрейт                                  : 448 Кбит/сек
Каналы                                   : 6 каналов
Расположение каналов                     : Front: L C R, Side: L R, LFE
Частота                                  : 48,0 КГц
Метод сжатия                             : С потерями
Размер потока                            : 381 Мбайт (3%)
Заголовок                                : Original
Язык                                     : English
Default                                  : Нет
Forced                                   : Нет

Текст #1
Идентификатор                            : 4
Формат                                   : UTF-8
Идентификатор кодека                     : S_TEXT/UTF8
Идентификатор кодека/Информация          : UTF-8 Plain Text
Заголовок                                : Full
Язык                                     : Russian
Default                                  : Нет
Forced                                   : Нет

Текст #2
Идентификатор                            : 5
Формат                                   : UTF-8
Идентификатор кодека                     : S_TEXT/UTF8
Идентификатор кодека/Информация          : UTF-8 Plain Text
Заголовок                                : Forced
Язык                                     : English
Default                                  : Нет
Forced                                   : Нет

Текст #3
Идентификатор                            : 6
Формат                                   : UTF-8
Идентификатор кодека                     : S_TEXT/UTF8
Идентификатор кодека/Информация          : UTF-8 Plain Text
Заголовок                                : Full
Язык                                     : English
Default                                  : Нет
Forced                                   : Нет

Текст #4
Идентификатор                            : 7
Формат                                   : UTF-8
Идентификатор кодека                     : S_TEXT/UTF8
Идентификатор кодека/Информация          : UTF-8 Plain Text
Заголовок                                : Full - SDH
Язык                                     : English
Default                                  : Нет
Forced                                   : Нет



Скриншоты:
[+] Всего файлов в раздаче - 1:
Polar_2019_WEBRip_1080p_IdeaFilm_by_Dalemake.mkv13.27 GB

Показать еще раздачи по запросу полярный:
2019-11-22 U Полярный [01-14 из 14] (2019) WEB-DLRip от GeneralFilm | КПК 1.53 GB ↑ 64 ↓ 50
2019-11-22 U Полярный [01-14 из 14] (2019) WEB-DLRip-AVC от ExKinoRay 5.27 GB ↑ 43 ↓ 35
2019-11-22 U Полярный [01-14 из 14 + фильм о сериале] (2019) WEB-DLRip от Files-x 4.67 GB ↑ 16 ↓ 178
2019-11-22 U Полярный [01-14 из 14] (2019) HDTVRip от Files-x 4.27 GB ↑ 71 ↓ 43
2019-11-22 U Полярный [01-14 из 14] (2019) WEB-DL 720p от ExKinoRay 7.61 GB ↑ 123 ↓ 97
2019-11-21 U Полярный [01-14 из 14] (2019) HDTV 1080p от GeneralFilm 13.45 GB ↑ 79 ↓ 132
2019-11-20 U Полярный [01-14 из 16] (2019) HDTVRip от GeneralFilm 3.82 GB ↑ 196 ↓ 475

Отзывы
Зарегистрируйтесь чтобы добавить комментарий.
Обратная связь
Copyleft ©