↑↓Torrent.by
Поиск
Логин: Регистрация
Пароль: Восстановить пароль
Загрузка...

Т-34 (2018) WEBRip-AVC от ExKinoRay

Скачать t-34-2018-webrip-avc-ot-exkinoray.torrent
U Магнитная ссылка Размер: 1.08 GB Раздают: 186 Качают: 113 Добавлен: 2019-02-01 20:32:10
Т-34 (2018) WEBRip-AVC от ExKinoRay

Название: Т-34
Год выпуска: 2018
Жанр:  Драма, военный, приключения
Режиссёр: Алексей Сидоров
В ролях: Александр Петров, Виктор Добронравов, Ирина Старшенбаум, Винценц Кифер, Петр Скворцов, Семен Трескунов, Артем Быстров, Антон Богданов, Василий Уриевский, Василий Буткевич

О фильме :
В 1941-м году вчерашний курсант Ивушкин вступает в неравный бой против танкового аса Ягера. Мало кто верит, что у него есть шанс – в одиночку разбить дюжину немецких танков. И все же, удача любит смелых. Второй встречи Ивушкина и Ягера могло не быть, но судьба на войне умеет удивлять траекторией и каждому дарит свое. Одному – любовь, с которой ничего не страшно, другому – одержимость, которая гонит вперед, сжигая изнутри. 1944-й год, танковый полигон Ордруф. Пленный Ивушкин задумывает дерзкий побег. На легендарной «тридцатьчетверке» он бросает вызов Ягеру, его «пантерам» и своей судьбе.

Страна: Россия
Студия: АМЕДИА, Марс Медиа Энтертейнмент
Продолжительность: 02:19:08
Язык: Русский

Файл
Формат: MKV
Качество: WEBRip-AVC
Видео: MPEG-4 AVC, 784x328, - 1029 Кбит/с
Аудио:  AAC-HE, 2 ch, - 76 Кбит/с
Субтитры: Нет


[+] MI
Общее
Уникальный идентификатор : 176292548210519307384922966128690688872 (0x84A0B5B2A41F8607AADD9E2397337368)
Полное имя : D:MOVIESt-34.2018.WEBRip-AVC.ExKinoRay.mkv
Формат : Matroska
Версия формата : Version 4 / Version 2
Размер файла : 1,08 Гбайт
Продолжительность : 2 ч. 19 м.
Общий поток : 1107 Кбит/сек
Дата кодирования : UTC 2019-02-01 15:45:01
Программа кодирования : mkvmerge v15.0.0 ('Duel with the Devil') 64-bit
Библиотека кодирования : libebml v1.3.5 + libmatroska v1.4.5

Видео
Идентификатор : 1
Формат : AVC
Формат/Информация : Advanced Video Codec
Профиль формата : High@L4.1
Параметр CABAC формата : Да
Параметр RefFrames формата : 14 кадров
Идентификатор кодека : V_MPEG4/ISO/AVC
Продолжительность : 2 ч. 19 м.
Битрейт : 1029 Кбит/сек
Ширина : 784 пикселя
Высота : 328 пикселей
Соотношение сторон : 2,40:1
Режим частоты кадров : Постоянный
Частота кадров : 30,000 кадров/сек
Цветовое пространство : YUV
Субдискретизация насыщенности : 4:2:0
Битовая глубина : 8 бит
Тип развёртки : Прогрессивная
Бит/(Пиксели*Кадры) : 0.133
Размер потока : 1024 Мбайт (93%)
Библиотека кодирования : x264 core 152 r2851kMod ba24899
Настройки программы : cabac=1 / ref=14 / deblock=1:-3:-3 / analyse=0x3:0x133 / me=umh / subme=10 / psy=1 / fade_compensate=0.00 / psy_rd=1.00:0.12 / mixed_ref=1 / me_range=32 / chroma_me=1 / trellis=2 / 8x8dct=1 / cqm=0 / deadzone=21,11 / fast_pskip=0 / chroma_qp_offset=-3 / threads=6 / lookahead_threads=1 / sliced_threads=0 / nr=0 / decimate=0 / interlaced=0 / bluray_compat=0 / constrained_intra=0 / bframes=13 / b_pyramid=2 / b_adapt=2 / b_bias=0 / direct=3 / weightb=1 / open_gop=0 / weightp=2 / keyint=300 / keyint_min=29 / scenecut=40 / intra_refresh=0 / rc_lookahead=40 / rc=2pass / mbtree=1 / bitrate=1029 / ratetol=1.0 / qcomp=0.60 / qpmin=0 / qpmax=69 / qpstep=4 / cplxblur=20.0 / qblur=0.5 / ip_ratio=1.40 / aq=3:1.00
Default : Да
Forced : Нет

Аудио
Идентификатор : 2
Формат : AAC
Формат/Информация : Advanced Audio Codec
Профиль формата : HE-AAC / LC
Идентификатор кодека : A_AAC
Продолжительность : 2 ч. 19 м.
Битрейт : 76,0 Кбит/сек
Каналы : 2 канала
Расположение каналов : Front: L R
Частота : 44,1 КГц / 22,05 КГц
Частота кадров : 21,533 кадра/сек (1024 SPF)
Метод сжатия : С потерями
Задержка видео : 33 мс.
Размер потока : 75,6 Мбайт (7%)
Default : Да
Forced : Нет



Скриншоты:
[+] Всего файлов в раздаче - 1:
t-34.2018.WEBRip-AVC.ExKinoRay.mkv1.08 GB

Показать еще раздачи по запросу webrip:
Вчера U Невский. Чужой среди чужих [03х01-10 из 20] (2019) WEBRip-AVC 7.45 GB ↑ 1 ↓ 2
Вчера U Невский. Чужой среди чужих [03x01-08 из 20] (2018) WEBRip 1080p от ExKinoRay 16.81 GB ↑ 56 ↓ 91
Вчера U Невский. Чужой среди чужих [03x01-08 из 20] (2018) WEBRip от GeneralFilm 4.35 GB ↑ 74 ↓ 106
Вчера U Гадалка [01-05 из 16] (2018) WEBRip от GeneralFilm 2.72 GB ↑ 87 ↓ 120
Вчера U Дорога домой [01-08 из 08] (2019) WEBRip от Files-x 4.69 GB ↑ 100 ↓ 97
Вчера U Невский. Чужой среди чужих [03x01-08 из 20] (2018) WEBRip от Files-x 4.63 GB ↑ 24 ↓ 33
Вчера U Невский. Чужой среди чужих [03x01-08 из 20] (2018) WEBRip-AVC от Files-x 5.97 GB ↑ 29 ↓ 79

Отзывы
Зарегистрируйтесь чтобы добавить комментарий.
Обратная связь
Copyleft ©