↑↓Torrent.by
Поиск
Логин: Регистрация
Пароль: Восстановить пароль
Загрузка...

Полярный / Polar (2018) WEB-DLRip-AVC от OlLanDGroup | IdeaFilm

Скачать polyarnyy-polar-2018-web-dlrip-avc-ot-ollandgroup-ideafilm.torrent
U Магнитная ссылка Размер: 2.44 GB Раздают: 165 Качают: 32 Добавлен: 2019-02-02 07:07:20
Полярный / Polar (2018) WEB-DLRip-AVC от OlLanDGroup | IdeaFilm

Полярный / Polar

Год выпуска: 2018
Страна: США, Германия
Производство: Constantin Film, Dark Horse Entertainment
Жанр:  Боевик, криминал

Режиссёр: Йонас Окерлунд
В ролях: Мадс Миккельсен, Ванесса Энн Хадженс, Кэтрин Уинник, Руби О. Фи, Джонни Ноксвилл, Мэтт Лукас, Сима Фишер, Роберт Мэйллет, Фэй Рен, Инга Кадранел

Перевод: Профессиональный многоголосый | [IdeaFilm]
Субтитры: Русские (полные), Английские (полные)
Реклама: Отсутствует

Внимание! Присутствует ненормативная лексика.

Описание: Дункан Визла - один из самых опасных киллеров в мире, известный под прозвищем Черный Кайзер. Когда-то он убивал людей по всему свету, но теперь наслаждается мирным существованием и давно уже не брал в руки оружие.Только вот бывший клиент, с которым у Дункана произошел небольшой конфликт, не собирается забывать старые обиды. В скором времени мирной жизни бывшего киллера придет конец, когда за Дунканом начнет охоту армия из молодых и беспощадных убийц. Для спасения жизни ему предстоит использовать все полученные за долгие годы заказных убийств навыки и знания.

Качество: WEB-DLRip-AVC | |
Продолжительность: 01:58:19

Формат: MKV
Видео кодек: MPEG-4 AVC
Аудио кодек: AC3
Видео: 1024x512 (2:1), 23,976 fps, x264 ~2 123 kbps avg, 0.169 bit/pixel
Аудио #1: 48 kHz, AC3 Dolby Digital, 3/2 (L,C,R,l,r) + LFE ch, ~384.00 kbps avg | RUS (IdeaFilm)
Аудио #1: 48 kHz, AC3 Dolby Digital, 3/2 (L,C,R,l,r) + LFE ch, ~448.00 kbps avg | ENG

Дата премьеры (мир): 25 января 2019
Дата премьеры (РФ):
Цифровой релиз:

Релиз: Rip by:


[+] MediaInfo

Общее
Уникальный идентификатор                 : 77888699017344497918303325398623802716 (0x3A98D159D01D6D305D034AAFC18B555C)
Полное имя                               : F:OlLanDGroupPolar.2019.WEB-DLRip(AVC).OlLanDGroup.mkv
Формат                                   : Matroska
Версия формата                           : Version 4 / Version 2
Размер файла                             : 2,44 Гбайт
Продолжительность                        : 1 ч. 58 м.
Общий поток                              : 2956 Кбит/сек
Название фильма                          : POLAR_2019   #TorpedoUK#
Дата кодирования                         : UTC 2019-02-01 16:10:34
Программа кодирования                    : mkvmerge v29.0.0 ('Like It Or Not') 64-bit
Библиотека кодирования                   : libebml v1.3.6 + libmatroska v1.4.9

Видео
Идентификатор                            : 1
Формат                                   : AVC
Формат/Информация                        : Advanced Video Codec
Профиль формата                          : High@L4.1
Параметр CABAC формата                   : Да
Параметр ReFrames формата                : 10 кадров
Идентификатор кодека                     : V_MPEG4/ISO/AVC
Продолжительность                        : 1 ч. 58 м.
Битрейт                                  : 2123 Кбит/сек
Ширина                                   : 1024 пикселя
Высота                                   : 512 пикселей
Соотношение сторон                       : 2,000
Режим частоты кадров                     : Постоянный
Частота кадров                           : 23,976 (24000/1001) кадра/сек
Цветовое пространство                    : YUV
Субдискретизация насыщенности            : 4:2:0
Битовая глубина                          : 8 бит
Тип развёртки                            : Прогрессивная
Бит/(Пиксели*Кадры)                      : 0.169
Размер потока                            : 1,75 Гбайт (72%)
Библиотека кодирования                   : x264 core 146 r2538 121396c
Настройки программы                      : cabac=1 / ref=10 / deblock=1:-3:-2 / analyse=0x3:0x113 / me=umh / subme=10 / psy=1 / psy_rd=0.95:0.07 / mixed_ref=1 / me_range=48 / chroma_me=1 / trellis=2 / 8x8dct=1 / cqm=0 / deadzone=21,11 / fast_pskip=1 / chroma_qp_offset=-3 / threads=6 / lookahead_threads=1 / sliced_threads=0 / nr=0 / decimate=1 / interlaced=0 / bluray_compat=0 / constrained_intra=0 / bframes=11 / b_pyramid=2 / b_adapt=2 / b_bias=0 / direct=3 / weightb=1 / open_gop=0 / weightp=2 / keyint=240 / keyint_min=23 / scenecut=40 / intra_refresh=0 / rc_lookahead=40 / rc=2pass / mbtree=0 / bitrate=2123 / ratetol=1.0 / qcomp=0.60 / qpmin=0 / qpmax=69 / qpstep=4 / cplxblur=20.0 / qblur=0.5 / vbv_maxrate=50000 / vbv_bufsize=62500 / nal_hrd=none / filler=0 / ip_ratio=1.40 / pb_ratio=1.30 / aq=1:1.00
Язык                                     : English
Default                                  : Да
Forced                                   : Нет

Аудио #1
Идентификатор                            : 2
Формат                                   : AC-3
Формат/Информация                        : Audio Coding 3
Расширение режима                        : CM (complete main)
Параметр Endianness формата              : Big
Идентификатор кодека                     : A_AC3
Продолжительность                        : 1 ч. 58 м.
Вид битрейта                             : Постоянный
Битрейт                                  : 384 Кбит/сек
Каналы                                   : 6 каналов
Расположение каналов                     : Front: L C R, Side: L R, LFE
Частота                                  : 48,0 КГц
Частота кадров                           : 31,250 кадров/сек (1536 spf)
Битовая глубина                          : 16 бит
Метод сжатия                             : С потерями
Размер потока                            : 325 Мбайт (13%)
Заголовок                                : MVO [IdeaFilm]
Язык                                     : Russian
Default                                  : Да
Forced                                   : Нет

Аудио #2
Идентификатор                            : 3
Формат                                   : AC-3
Формат/Информация                        : Audio Coding 3
Расширение режима                        : CM (complete main)
Параметр Endianness формата              : Big
Идентификатор кодека                     : A_AC3
Продолжительность                        : 1 ч. 58 м.
Вид битрейта                             : Постоянный
Битрейт                                  : 448 Кбит/сек
Каналы                                   : 6 каналов
Расположение каналов                     : Front: L C R, Side: L R, LFE
Частота                                  : 48,0 КГц
Частота кадров                           : 31,250 кадров/сек (1536 spf)
Битовая глубина                          : 16 бит
Метод сжатия                             : С потерями
Размер потока                            : 379 Мбайт (15%)
Заголовок                                : [Original]
Язык                                     : English
Default                                  : Нет
Forced                                   : Нет

Текст #1
Идентификатор                            : 4
Формат                                   : UTF-8
Идентификатор кодека                     : S_TEXT/UTF8
Идентификатор кодека/Информация          : UTF-8 Plain Text
Продолжительность                        : 1 ч. 47 м.
Битрейт                                  : 60 бит/сек
Count of elements                        : 1107
Размер потока                            : 47,7 Кбайт (0%)
Заголовок                                : Full
Язык                                     : Russian
Default                                  : Нет
Forced                                   : Нет

Текст #2
Идентификатор                            : 5
Формат                                   : UTF-8
Идентификатор кодека                     : S_TEXT/UTF8
Идентификатор кодека/Информация          : UTF-8 Plain Text
Продолжительность                        : 1 ч. 46 м.
Битрейт                                  : 39 бит/сек
Count of elements                        : 1154
Размер потока                            : 30,7 Кбайт (0%)
Заголовок                                : Full
Язык                                     : English
Default                                  : Нет
Forced                                   : Нет



Скриншоты:
[+] Всего файлов в раздаче - 1:
Polar.2019.WEB-DLRip(AVC).OlLanDGroup.mkv2.44 GB

Показать еще раздачи по запросу полярный:
2019-02-10 U Полярный / Polar (2019) WEBRip 1080p от Ash61 | HDrezka 1К13.64 GB ↑ 115 ↓ 97
2019-02-07 U Полярный / Polar (2019) WEB-DLRip от MegaPeer | IdeaFilm 746.11 MB ↑ 39 ↓ 7
2019-02-04 U Полярный / Polar (2019) WEB-DLRip от Scarabey | IdeaFilm 1К1.45 GB ↑ 67 ↓ 24
2019-02-01 U Полярный / Polar (2019) WEBRip 1080p от Dalemake | IdeaFilm 13.27 GB ↑ 276 ↓ 253
2019-02-01 U Полярный / Polar (2019) WEB-DLRip от MegaPeer | IdeaFilm 2К1.46 GB ↑ 400 ↓ 75
2019-02-01 U Полярный / Polar (2019) WEB-DLRip от Dalemake | IdeaFilm 1.47 GB ↑ 286 ↓ 119
2019-01-28 U Полярный / Polar (2019) WEBRip 1080p | L1 6.05 GB ↑ 229 ↓ 34

Отзывы
Зарегистрируйтесь чтобы добавить комментарий.
Обратная связь
Copyleft ©