↑↓torrent.by
Поиск
Логин: Регистрация
Пароль: Восстановить пароль

Бамблби / Bumblebee (2018) WEBRip 720p от Tapochek | СВ Студия

Скачать bamblbi-bumblebee-2018-webrip-720p-ot-tapochek-sv-studiya.torrent
U Магнитная ссылка Размер: 3.38 GB Раздают: 450 Качают: 82 Добавлен: 2019-02-02 07:08:53
Бамблби / Bumblebee (2018) WEBRip 720p от Tapochek | СВ Студия

Название: Бамблби
Оригинальное название: Bumblebee
Год выхода: 2018
Жанр: фантастика, боевик, приключения
Режиссер: Трэвис Найт
В ролях: Дилан О'Брайен, Хейли Стайнфелд, Джастин Теру, Джон Сина, Анджела Бассетт, Памела Адлон, Мегин Прайс, Грэй ДеЛисл, Питер Каллен, Кеннет Чои

О фильме:
1987 год. Скрываясь от преследования, Бамблби находит убежище на автомобильной свалке в калифорнийском городке, где живет Чарли. Девушке скоро исполнится 18, она стремится найти свое место в жизни. И именно она наталкивается на покореженного и сломленного Бамблби. Приведя его в чувство, Чарли моментально осознает: на ее пути оказался не простой желтый Фольксваген Жук….

Страна: США
Студия: Студия-изготовитель, если известна
Продолжительность: 01:53:47
Перевод: Профессиональный многоголосый [СВ Студия]
Субтитры: Корейские [неотключаемые]

Релиз от: Tapochek

Файл
Качество: WEBRip 720p
Формат: MKV
Видео кодек: AVC
Аудио кодек: AC3
Видео: 1280x720 (16:9), 29.970 fps, AVC, 3 800 Kbps
Аудио 1: AC-3, 48.0 kHz, 2 ch, 256 kb/s (MVO, Русский)
Аудио 2: AC-3, 48.0 kHz, 2 ch, 192 kb/s (Английский)


[+] МедиаИнфо
General
Unique ID                                : 78581633690367109113913005341333719815 (0x3B1E45AAFCD78082582B11AF547F0B07)
Complete name                            : Bumblebee.2018.WebRip.720p.Tapochek.mkv
Format                                   : Matroska
Format version                           : Version 4 / Version 2
File size                                : 3.38 GiB
Duration                                 : 1h 53mn
Overall bit rate                         : 4 252 Kbps
Writing application                      : XviD4PSP 7.0.466 DAILY
Writing library                          : Lavf57.71.100

Video
ID                                       : 1
Format                                   : AVC
Format/Info                              : Advanced Video Codec
Format profile                           : High@L4.1
Format settings, CABAC                   : Yes
Format settings, ReFrames                : 4 frames
Codec ID                                 : V_MPEG4/ISO/AVC
Duration                                 : 1h 53mn
Bit rate                                 : 3 800 Kbps
Width                                    : 1 280 pixels
Height                                   : 720 pixels
Display aspect ratio                     : 16:9
Frame rate mode                          : Constant
Frame rate                               : 29.970 fps
Color space                              : YUV
Chroma subsampling                       : 4:2:0
Bit depth                                : 8 bits
Scan type                                : Progressive
Bits/(Pixel*Frame)                       : 0.138
Stream size                              : 2.96 GiB (87%)
Writing library                          : x264 core 157 r2935 545de2f
Encoding settings                        : cabac=1 / ref=4 / deblock=1:0:0 / analyse=0x3:0x113 / me=umh / subme=9 / psy=1 / psy_rd=1.00:0.00 / mixed_ref=1 / me_range=16 / chroma_me=1 / trellis=2 / 8x8dct=1 / cqm=0 / deadzone=21,11 / fast_pskip=1 / chroma_qp_offset=-4 / threads=4 / lookahead_threads=1 / sliced_threads=0 / nr=0 / decimate=1 / interlaced=0 / bluray_compat=0 / constrained_intra=0 / bframes=3 / b_pyramid=2 / b_adapt=2 / b_bias=0 / direct=3 / weightb=1 / open_gop=0 / weightp=2 / keyint=250 / keyint_min=25 / scenecut=40 / intra_refresh=0 / rc_lookahead=50 / rc=2pass / mbtree=1 / bitrate=3800 / ratetol=1.0 / qcomp=0.60 / qpmin=0 / qpmax=69 / qpstep=4 / cplxblur=20.0 / qblur=0.5 / ip_ratio=1.40 / aq=1:1.00
Default                                  : Yes
Forced                                   : No
Color primaries                          : BT.709
Transfer characteristics                 : BT.709
Matrix coefficients                      : BT.709

Audio #1
ID                                       : 2
Format                                   : AC-3
Format/Info                              : Audio Coding 3
Mode extension                           : CM (complete main)
Format settings, Endianness              : Big
Codec ID                                 : A_AC3
Duration                                 : 1h 53mn
Bit rate mode                            : Constant
Bit rate                                 : 256 Kbps
Channel(s)                               : 2 channels
Channel positions                        : Front: L R
Sampling rate                            : 48.0 KHz
Bit depth                                : 16 bits
Compression mode                         : Lossy
Stream size                              : 208 MiB (6%)
Default                                  : Yes
Forced                                   : No

Audio #2
ID                                       : 3
Format                                   : AC-3
Format/Info                              : Audio Coding 3
Mode extension                           : CM (complete main)
Format settings, Endianness              : Big
Codec ID                                 : A_AC3
Duration                                 : 1h 53mn
Bit rate mode                            : Constant
Bit rate                                 : 192 Kbps
Channel(s)                               : 2 channels
Channel positions                        : Front: L R
Sampling rate                            : 48.0 KHz
Bit depth                                : 16 bits
Compression mode                         : Lossy
Stream size                              : 156 MiB (5%)
Language                                 : English
Default                                  : No
Forced                                   : No



Скриншоты:
[+] Всего файлов в раздаче - 1:
Bumblebee.2018.WebRip.720p.Tapochek.mkv3.38 GB

Похожие раздачи по запросу - бамблби:
2019-03-28 U Бамблби / Bumblebee (2018) BDRip 1080p от qqss44 & MegaPeer | Лицензия 8.70 GB ↑ 398 ↓ 58
2019-03-27 U Бамблби / Bumblebee (2018) BDRip от ExKinoRay | Лицензия 1.46 GB ↑ 593 ↓ 28
2019-03-24 U Бамблби / Bumblebee (2018) BDRip 1080p от селезень | D, P | Лицензия 16.15 GB ↑ 189 ↓ 192
2019-03-24 U Бамблби / Bumblebee (2018) BDRip 720p от селезень | D, P | Лицензия 8.21 GB ↑ 855 ↓ 210
2019-01-30 U Бамблби / Bumblebee (2018) WEBRip от Dalemake | СВ Студия 3К1.45 GB ↑ 748 ↓ 2256

Отзывы
Зарегистрируйтесь чтобы добавить комментарий.
Обратная связь
Copyleft ©