↑↓Torrent.by
Поиск
Логин: Регистрация
Пароль: Восстановить пароль
Загрузка...

Гринч / The Grinch (2018) BDRip 1080p от Ash61 | 3D-Video | halfOU | L

Скачать grinch-the-2018-bdrip-1080p-ot-ash61-3d-video-halfou-l.torrent
U Магнитная ссылка Размер: 5.45 GB Раздают: 90 Качают: 88 Добавлен: 2019-02-02 11:15:03
Гринч / The Grinch (2018) BDRip 1080p от Ash61 | 3D-Video | halfOU | L

Гринч
The Grinch
«Символ нового года»


Год выпуска: 2018
Страна: Франция, Китай, Япония, США (Illumination Entertainment, Universal Pictures)
Жанр:  мультфильм, фэнтези, комедия, семейный
Продолжительность: 01:25:50

Перевод: Любительский многоголосый закадровый - @MUZOBOZ@

Режиссеры: Ярроу Чейни, Скотт Моужер / Yarrow Cheney, Scott Mosier

Роли озвучивали: Бенедикт Камбербэтч (Гринч), Кэмерон Сили (Синди-Лу), Рашида Джонс (Донна Кто), Фаррелл Уильямс (рассказчик), Тристан О’Хэйр (Груперт), Кенан Томпсон (мистер Бриклбаум), Сэм Лаваньино (Оззи), Рамон Хэмилтон (Эксл), Анджела Лэнсбери (мэр МакГёркл), Скарлетт Эстевес (Иззи), Майкл Битти (продавец в магазине)

Описание: Любой бы на месте Гринча позеленел и взбесился. Как порядочный интроверт он живёт в тёмной пещере на самой вершине горы подальше ото всех, но эти «все» готовят грандиознейшее празднование Нового года. Они шумят, всё украшают и дико бесят. Кто бы отказал себе в удовольствии испортить праздник? Гринч решает украсть Новый год.

Доп. инфо: Русская дорога получена вставкой русских фраз (из дороги а-ля Кошара) в центр оригинала.

Премьера: 8 ноября 2018 (13 декабря 2018)
Бюджет: $75 000 000
Кассовые сборы: $508 703 525


Качество: BDRip (by Ash61)
Контейнер: MKV
Формат 3D: Half OverUnder / Вертикальная анаморфная стереопара
Порядок ракурсов: левый ракурс первый

Видео: AVC / 1920х1080p / 23,976 fps / 8.0 Mbps

Аудио:
#1 - Русский / AC3 / 48 KHz / 5.1 ch / 640 Kbps (MVO - MuzOboz) [ремастеринг - Ash61]
#2 - Английский / AC3 / 48 KHz / 5.1 ch / 448 Kbps (Original - BD 3D)

Субтитры (SRT):
Вшитые (softsub):
#1 - Русские Форсированные [от Ash61] (включены по умолчанию)
#2 - English Full
#3 - English SDH (BD 3D)

Внешние (UTF-8):
#1 - Русские Форсированные [от Ash61] (включены по умолчанию)

Каталог фильмов, выходивших в 3Д, со ссылками (вер. 19.10.2018)

О форматах и методах просмотра 3D


[+] Знаете ли вы, что...
Вначале фильм планировали выпустить в ноябре 2017 года, но впоследствии дату релиза перенесли на целый год, чтобы избежать конкуренции в прокате с другим проектом компании Sony Animation — фильмом Тимоти Рекарта «Путеводная звезда» (2017).
В оригинале Гринч крадёт не Новый год, а Рождество.



[+] MediaInfo
General
Unique ID                   : 178349416074788011554283281145236809434 (0x862CD91CF761F2B3AEE87274D4AFE6DA)
Complete name               : J:TheGrinch(2018)3D-halfOU(Ash61)MVOTheGrinch(2018)3D-halfOU(Ash61)MVO.mkv
Format                      : Matroska
Format version              : Version 3 / Version 2
File size                   : 5.45 GiB
Duration                    : 1h 25mn
Overall bit rate            : 9 089 Kbps
Movie name                  : Гринч / The Grinch (2018) in 3D
Encoded date                : UTC 2019-02-01 20:14:48
Writing application         : mkvmerge v5.8.0 ('No Sleep / Pillow') built on Sep  2 2012 15:37:04
Writing library             : libebml v1.2.3 + libmatroska v1.3.0

Video
ID                          : 1
Format                      : AVC
Format/Info                 : Advanced Video Codec
Format profile              : High@L4.1
MultiView_Count             : 2
MultiView_Layout            : Top-Bottom (left eye first)
Format settings, CABAC      : Yes
Format settings, ReFrames   : 4 frames
Codec ID                    : V_MPEG4/ISO/AVC
Duration                    : 1h 25mn
Bit rate                    : 8 000 Kbps
Width                       : 1 920 pixels
Height                      : 1 080 pixels
Display aspect ratio        : 16:9
Frame rate mode             : Constant
Frame rate                  : 23.976 (24000/1001) fps
Color space                 : YUV
Chroma subsampling          : 4:2:0
Bit depth                   : 8 bits
Scan type                   : Progressive
Bits/(Pixel*Frame)          : 0.161
Stream size                 : 4.69 GiB (86%)
Title                       : BDRip by Ash61
Writing library             : x264 core 146 r2538 121396c
Encoding settings           : cabac=1 / ref=4 / deblock=1:-3:-3 / analyse=0x3:0x113 / me=umh / subme=10 / psy=1 / psy_rd=1.00:0.00 / mixed_ref=1 / me_range=32 / chroma_me=1 / trellis=2 / 8x8dct=1 / cqm=0 / deadzone=21,11 / fast_pskip=0 / chroma_qp_offset=-2 / threads=12 / lookahead_threads=2 / sliced_threads=0 / nr=0 / decimate=0 / interlaced=0 / bluray_compat=0 / constrained_intra=0 / bframes=9 / b_pyramid=2 / b_adapt=2 / b_bias=0 / direct=3 / weightb=1 / open_gop=0 / weightp=2 / keyint=250 / keyint_min=23 / scenecut=40 / intra_refresh=0 / rc_lookahead=60 / rc=2pass / mbtree=0 / bitrate=8000 / ratetol=1.0 / qcomp=0.70 / qpmin=0 / qpmax=69 / qpstep=4 / cplxblur=20.0 / qblur=0.5 / vbv_maxrate=40000 / vbv_bufsize=30000 / nal_hrd=none / filler=0 / frame-packing=4 / ip_ratio=1.40 / pb_ratio=1.30 / aq=1:0.70
Language                    : English
Default                     : Yes
Forced                      : No

Audio #1
ID                          : 2
Format                      : AC-3
Format/Info                 : Audio Coding 3
Mode extension              : CM (complete main)
Format settings, Endianness : Big
Codec ID                    : A_AC3
Duration                    : 1h 25mn
Bit rate mode               : Constant
Bit rate                    : 640 Kbps
Channel(s)                  : 6 channels
Channel positions           : Front: L C R, Side: L R, LFE
Sampling rate               : 48.0 KHz
Frame rate                  : 31.250 fps (1536 spf)
Compression mode            : Lossy
Stream size                 : 393 MiB (7%)
Title                       : MVO - @MUZOBOZ@ [ремастеринг - Ash61]
Language                    : Russian
Default                     : Yes
Forced                      : No

Audio #2
ID                          : 3
Format                      : AC-3
Format/Info                 : Audio Coding 3
Mode extension              : CM (complete main)
Format settings, Endianness : Big
Codec ID                    : A_AC3
Duration                    : 1h 25mn
Bit rate mode               : Constant
Bit rate                    : 448 Kbps
Channel(s)                  : 6 channels
Channel positions           : Front: L C R, Side: L R, LFE
Sampling rate               : 48.0 KHz
Frame rate                  : 31.250 fps (1536 spf)
Compression mode            : Lossy
Stream size                 : 275 MiB (5%)
Title                       : Original (BD 3D Eur)
Language                    : English
Default                     : No
Forced                      : No

Text #1
ID                          : 4
Format                      : UTF-8
Codec ID                    : S_TEXT/UTF8
Codec ID/Info               : UTF-8 Plain Text
Title                       : Форсированные [от Ash61]
Language                    : Russian
Default                     : Yes
Forced                      : No

Text #2
ID                          : 5
Format                      : UTF-8
Codec ID                    : S_TEXT/UTF8
Codec ID/Info               : UTF-8 Plain Text
Title                       : Full
Language                    : English
Default                     : No
Forced                      : No

Text #3
ID                          : 6
Format                      : UTF-8
Codec ID                    : S_TEXT/UTF8
Codec ID/Info               : UTF-8 Plain Text
Title                       : SDH (BD 3D Eur)
Language                    : English
Default                     : No
Forced                      : No

Menu
00:00:00.000                : :1
00:05:40.298                : :2
00:10:35.927                : :3
00:14:14.103                : :4
00:17:45.106                : :5
00:22:19.296                : :6
00:26:28.337                : :7
00:30:45.093                : :8
00:34:46.584                : :9
00:38:37.190                : :10
00:44:40.595                : :11
00:47:27.678                : :12
00:52:37.488                : :13
00:56:33.181                : :14
01:01:04.995                : :15
01:05:34.639                : :16
01:07:23.456                : :17
01:12:14.914                : :18
01:14:12.782                : :19
01:18:08.309                : :20



[+] Для оценки 3Д - Анимированные скрины




















Скриншоты:
[+] Всего файлов в раздаче - 2:
TheGrinch(2018)3D-halfOU(Ash61)MVO.mkv5.45 GB
TheGrinch(2018)3D-halfOU(Ash61)MVO.srt2.17 kB

Показать еще раздачи по запросу гринч:
2019-04-06 U Гринч / The Grinch (2018) BDRip от MegaPeer | Лицензия 1.46 GB ↑ 107 ↓ 22
2019-03-25 U Гринч / The Grinch (2018) BDRip-AVC от HELLYWOOD | iTunes 2.14 GB ↑ 59 ↓ 18
2019-03-24 U Гринч / The Grinch (2018) BDRip 1080p от Generalfilm | iTunes 3.59 GB ↑ 169 ↓ 69
2019-03-24 U Гринч / The Grinch (2018) HDRip от Scarabey | iTunes 1.41 GB ↑ 86 ↓ 37
2019-03-23 U Гринч / The Grinch (2018) BDRemux 1080p от селезень | D, P | iTunes 22.39 GB ↑ 73 ↓ 21
2019-03-23 U Гринч / The Grinch (2018) UHD BDRemux 2160p от селезень | 4K | HDR | D, P | iTunes 39.51 GB ↑ 69 ↓ 20
2019-03-23 U Гринч / The Grinch (2018) BDRip от ExKinoRay | iTunes 1.42 GB ↑ 171 ↓ 39

Отзывы
Зарегистрируйтесь чтобы добавить комментарий.
Обратная связь
Copyleft ©