↑↓Torrent.by
Поиск
Логин: Регистрация
Пароль: Восстановить пароль
Загрузка...

Гринч / The Grinch (2018) BDRip-AVC от ExKinoRay | L

Скачать grinch-the-2018-bdrip-avc-ot-exkinoray-l.torrent
U Магнитная ссылка Размер: 1.82 GB Раздают: 121 Качают: 48 Добавлен: 2019-02-03 07:06:21
Гринч / The Grinch (2018) BDRip-AVC от ExKinoRay | L

Название: Гринч
Оригинальное название: The Grinch
Год выпуска: 2018
Жанр: Мультфильм, фэнтези, комедия, семейный, полнометражный
Режиссер: Ярроу Чейни, Скотт Моужер
В ролях: Бенедикт Камбербэтч, Кэмерон Сили, Рашида Джонс, Фаррелл Уильямс, Тристан О`Хара, Кенан Томпсон, Сэм Лаваньино, Рамон Хэмилтон, Анджела Лэнсбери, Скарлет Эстевез, Майкл Битти, Лори Алан, Ивэн Кишияма

Описание:  
Любой бы на месте Гринча позеленел и взбесился. Как порядочный интроверт, он живёт в тёмной пещере на самой вершине горы подальше ото всех, но эти «все» готовят грандиознейшее празднование нового года. Они шумят, всё украшают и дико бесят. Кто бы отказал себе в удовольствии испортить праздник? Гринч решает украсть Новый год.

Страна: Китай, США, Франция, Япония
Студия: Illumination Entertainment , Perfect World Pictures Co., Universal Pictures
Продолжительность: 01:25:49
Перевод: Любительский (многоголосый, закадровый) | @MUZOBOZ@
Субтитры:
#1 - Русские Форсированные [от Ash61] (включены по умолчанию)
#2 - English Full

БЕЗ КАКОЙ-ЛИБО РЕКЛАМЫ!

Формат: MKV
Качество: BDRip-AVC
Видео: MPEG-4 AVC, 1024x428 (2.40:1), 23.976 fps, 2137 Kbps, 0.203 bit/pixel
Аудио #01: 48 kHz, AC3, 5.1, 448 Kbps | RUS |
Аудио #02: 48 kHz, AC3, 5.1, 448 Kbps | Оригинал |  ENG |

Релиз:

Автор релиза:


[+] ОтчетМедиаИнфо

General
Unique ID                                : 189801123205977997521067420223310183985 (0x8ECA5DDDD3E58E4FA1E87DE1A5B8BE31)
Complete name                            : D:The.Grinch.2018.MVO.BDRip.AVC.ExKinoRay.mkv
Format                                   : Matroska
Format version                           : Version 2
File size                                : 1.82 GiB
Duration                                 : 1 h 25 min
Overall bit rate                         : 3 036 kb/s
Movie name                               : The Grinch (2018) from ExKinoRay
Encoded date                             : UTC 2019-02-02 17:27:33
Writing application                      : mkvmerge v5.6.0 ('Kenya Kane') built on May 27 2012 16:44:04
Writing library                          : libebml v1.2.3 + libmatroska v1.3.0

Video
ID                                       : 1
Format                                   : AVC
Format/Info                              : Advanced Video Codec
Format profile                           : High@L4.1
Format settings, CABAC                   : Yes
Format settings, ReFrames                : 12 frames
Codec ID                                 : V_MPEG4/ISO/AVC
Duration                                 : 1 h 25 min
Bit rate                                 : 2 137 kb/s
Width                                    : 1 024 pixels
Height                                   : 428 pixels
Display aspect ratio                     : 2.40:1
Frame rate mode                          : Constant
Frame rate                               : 23.976 (23976/1000) FPS
Color space                              : YUV
Chroma subsampling                       : 4:2:0
Bit depth                                : 8 bits
Scan type                                : Progressive
Bits/(Pixel*Frame)                       : 0.203
Stream size                              : 1.25 GiB (68%)
Title                                    : Enigma
Writing library                          : x264 core 152 r2851 ba24899
Encoding settings                        : cabac=1 / ref=12 / deblock=1:-2:-2 / analyse=0x3:0x113 / me=umh / subme=10 / psy=1 / psy_rd=1.02:0.05 / mixed_ref=1 / me_range=32 / chroma_me=1 / trellis=2 / 8x8dct=1 / cqm=0 / deadzone=21,11 / fast_pskip=0 / chroma_qp_offset=-3 / threads=12 / lookahead_threads=3 / sliced_threads=0 / nr=0 / decimate=0 / interlaced=0 / bluray_compat=0 / constrained_intra=0 / bframes=10 / b_pyramid=2 / b_adapt=2 / b_bias=0 / direct=3 / weightb=1 / open_gop=0 / weightp=2 / keyint=240 / keyint_min=23 / scenecut=40 / intra_refresh=0 / rc=2pass / mbtree=0 / bitrate=2137 / ratetol=1.0 / qcomp=0.60 / qpmin=0 / qpmax=51 / qpstep=4 / cplxblur=20.0 / qblur=0.5 / ip_ratio=1.40 / pb_ratio=1.30 / aq=2:0.90
Language                                 : English
Default                                  : Yes
Forced                                   : No
Color range                              : Limited
Color primaries                          : BT.709
Transfer characteristics                 : BT.709
Matrix coefficients                      : BT.709

Audio #1
ID                                       : 2
Format                                   : AC-3
Format/Info                              : Audio Coding 3
Mode extension                           : CM (complete main)
Format settings, Endianness              : Big
Codec ID                                 : A_AC3
Duration                                 : 1 h 25 min
Bit rate mode                            : Constant
Bit rate                                 : 448 kb/s
Channel(s)                               : 6 channels
Channel positions                        : Front: L C R, Side: L R, LFE
Sampling rate                            : 48.0 kHz
Frame rate                               : 31.250 FPS (1536 spf)
Compression mode                         : Lossy
Stream size                              : 275 MiB (15%)
Title                                    : MVO (MuzOboz)
Language                                 : Russian
Default                                  : Yes
Forced                                   : No

Audio #2
ID                                       : 3
Format                                   : AC-3
Format/Info                              : Audio Coding 3
Mode extension                           : CM (complete main)
Format settings, Endianness              : Big
Codec ID                                 : A_AC3
Duration                                 : 1 h 25 min
Bit rate mode                            : Constant
Bit rate                                 : 448 kb/s
Channel(s)                               : 6 channels
Channel positions                        : Front: L C R, Side: L R, LFE
Sampling rate                            : 48.0 kHz
Frame rate                               : 31.250 FPS (1536 spf)
Compression mode                         : Lossy
Stream size                              : 275 MiB (15%)
Language                                 : English
Default                                  : No
Forced                                   : No

Text #1
ID                                       : 4
Format                                   : UTF-8
Codec ID                                 : S_TEXT/UTF8
Codec ID/Info                            : UTF-8 Plain Text
Title                                    : Forced
Language                                 : Russian
Default                                  : Yes
Forced                                   : No

Text #2
ID                                       : 5
Format                                   : UTF-8
Codec ID                                 : S_TEXT/UTF8
Codec ID/Info                            : UTF-8 Plain Text
Language                                 : English
Default                                  : No
Forced                                   : No

Menu
00:00:00.000                             : en:Chapter 01
00:05:40.298                             : en:Chapter 02
00:10:35.927                             : en:Chapter 03
00:14:14.103                             : en:Chapter 04
00:17:45.106                             : en:Chapter 05
00:22:19.296                             : en:Chapter 06
00:26:28.337                             : en:Chapter 07
00:30:45.093                             : en:Chapter 08
00:34:46.584                             : en:Chapter 09
00:38:37.190                             : en:Chapter 10
00:44:40.595                             : en:Chapter 11
00:47:27.678                             : en:Chapter 12
00:52:37.488                             : en:Chapter 13
00:56:33.181                             : en:Chapter 14
01:01:04.995                             : en:Chapter 15
01:05:34.639                             : en:Chapter 16
01:07:23.456                             : en:Chapter 17
01:12:14.914                             : en:Chapter 18
01:14:12.782                             : en:Chapter 19
01:18:08.309                             : en:Chapter 20




Скриншоты:
[+] Всего файлов в раздаче - 1:
The.Grinch.2018.MVO.BDRip.AVC.ExKinoRay.mkv1.82 GB

Показать еще раздачи по запросу гринч:
2019-04-06 U Гринч / The Grinch (2018) BDRip от MegaPeer | Лицензия 1.46 GB ↑ 107 ↓ 22
2019-03-25 U Гринч / The Grinch (2018) BDRip-AVC от HELLYWOOD | iTunes 2.14 GB ↑ 59 ↓ 18
2019-03-24 U Гринч / The Grinch (2018) BDRip 1080p от Generalfilm | iTunes 3.59 GB ↑ 169 ↓ 69
2019-03-24 U Гринч / The Grinch (2018) HDRip от Scarabey | iTunes 1.41 GB ↑ 86 ↓ 37
2019-03-23 U Гринч / The Grinch (2018) BDRemux 1080p от селезень | D, P | iTunes 22.39 GB ↑ 73 ↓ 21
2019-03-23 U Гринч / The Grinch (2018) UHD BDRemux 2160p от селезень | 4K | HDR | D, P | iTunes 39.51 GB ↑ 69 ↓ 20
2019-03-23 U Гринч / The Grinch (2018) BDRip от ExKinoRay | iTunes 1.42 GB ↑ 171 ↓ 39

Отзывы
Зарегистрируйтесь чтобы добавить комментарий.
Обратная связь
Copyleft ©