↑↓Torrent.by
Поиск
Логин: Регистрация
Пароль: Восстановить пароль
Загрузка...

От Буга до Вислы (1980) DVDRip-AVC от KORSAR

Скачать ot-buga-do-visly-1980-dvdrip-avc-korsar.torrent
U Магнитная ссылка Размер: 2.17 GB Раздают: 60 Качают: 11 Добавлен: 2019-02-03 07:09:54
От Буга до Вислы (1980) DVDRip-AVC от KORSAR

Название: От Буга до Вислы
Год выхода: 1980
Жанр: Военный
Режиссер: Тимофей Левчук
В ролях: Михай Волонтир, Лесь Сердюк, Николай Гринько, Анатолий Пазенко, Евгений Паперный, Леонид Яновский, Александр Денисов, Юрий Каморный, Михаил Горносталь, Улдис Пуцитис, Улдис Лиелдидж, Андрей Ростоцкий, Иван Гаврилюк, Яков Козлов, Станислав Микульский, Петерис Гаудиньш, Зураб Капианидзе, Александр Мовчан, Осип (Иосиф) Найдук, Евгений Пашин, Андрей Праченко, Юрис Стренга, Наталия Сумская, Лембит Ульфсак, Нина Колчина-Бунь, Игорь Слободской, Богдан Ступка, Януш Цербст

О фильме: Картина повествует о последнем рейде украинской партизанской дивизии имени С. А. Ковпака по руководством П. П. Вершигоры в тыл врага в 1943-1944 годах, выходе ее к государственной границе СССР и Польши, интернациональной помощи польскому народу в освобождении от фашистких захватчиков.

Часть 1. Действовать самостоятельно
Часть 2. Смерти наперекор

Страна: СССР
Студия: Студия Довженко
Продолжительность: 01:04:53 + 01:07:37

Кодек: х264
Качество: DVDRip-AVC
Видео: MPEG-4 AVC, 696x440@990x440, 25 fps, 1802 - 2109 Кбит/с
Аудио: AC3, 6 ch, 384 Кбит/с

Релиз:


[+] Инфо файл

Часть 1. Действовать самостоятельно

x264 [info]: frame I:581 Avg QP:16.64 size: 46399
x264 [info]: frame P:23211 Avg QP:18.18 size: 20718
x264 [info]: frame B:73535 Avg QP:20.61 size: 5020
x264 [info]: consecutive B-frames: 1.9% 4.0% 16.3% 18.4% 22.3% 31.9% 3.4% 1.1% 0.3% 0.2% 0.0%

General
Unique ID : 319392112322752040706751568529224548174 (0xF048AEED8EDB73A991DB17579392BF4E)
Complete name : S:FILMSОт Буга до Вислы (1980)От Буга до Вислы. Часть1. Действовать самостоятельно (1980) DVDRip-AVC - KORSAR.mkv
Format : Matroska
Format version : Version 4 / Version 2
File size : 1 015 MiB
Duration : 1 h 4 min
Overall bit rate : 2 188 kb/s
Movie name : От Буга до Вислы (1980) часть1. Действовать самостоятельно_rip_by_Cthulhu
Encoded date : UTC 2019-01-30 21:44:05
Writing application : mkvmerge v28.2.0 ('The Awakening') 64-bit
Writing library : libebml v1.3.6 + libmatroska v1.4.9
Cover : Yes
Attachments : cover.jpg

Video
ID : 1
Format : AVC
Format/Info : Advanced Video Codec
Format profile : High@L4.1
Format settings, CABAC : Yes
Format settings, RefFrames : 14 frames
Codec ID : V_MPEG4/ISO/AVC
Duration : 1 h 4 min
Bit rate : 1 802 kb/s
Width : 696 pixels
Height : 440 pixels
Display aspect ratio : 2.25:1
Original display aspect ratio : 2.25:1
Frame rate mode : Constant
Frame rate : 25.000 FPS
Color space : YUV
Chroma subsampling : 4:2:0
Bit depth : 8 bits
Scan type : Progressive
Bits/(Pixel*Frame) : 0.235
Stream size : 836 MiB (82%)
Writing library : x264 core 152 r2851kMod ba24899
Encoding settings : cabac=1 / ref=14 / deblock=1:-2:-1 / analyse=0x3:0x133 / me=umh / subme=11 / psy=1 / fade_compensate=0.00 / psy_rd=1.00:0.10 / mixed_ref=1 / me_range=48 / chroma_me=1 / trellis=2 / 8x8dct=1 / cqm=0 / deadzone=21,11 / fast_pskip=1 / chroma_qp_offset=-3 / threads=14 / lookahead_threads=3 / sliced_threads=0 / nr=0 / decimate=1 / interlaced=0 / bluray_compat=0 / constrained_intra=0 / bframes=10 / b_pyramid=2 / b_adapt=2 / b_bias=0 / direct=3 / weightb=1 / open_gop=0 / weightp=2 / keyint=250 / keyint_min=25 / scenecut=40 / intra_refresh=0 / rc=crf / mbtree=0 / crf=17.0000 / qcomp=0.60 / qpmin=0 / qpmax=39 / qpstep=4 / ip_ratio=1.40 / pb_ratio=1.30 / aq=2:1.00
Language : Russian
Default : Yes
Forced : No
Color range : Limited
Color primaries : BT.601 PAL
Transfer characteristics : BT.470 System B, BT.470 System G
Matrix coefficients : BT.601

Audio
ID : 2
Format : AC-3
Format/Info : Audio Coding 3
Mode extension : CM (complete main)
Format settings, Endianness : Big
Codec ID : A_AC3
Duration : 1 h 4 min
Bit rate mode : Constant
Bit rate : 384 kb/s
Channel(s) : 6 channels
Channel positions : Front: L C R, Side: L R, LFE
Sampling rate : 48.0 kHz
Frame rate : 31.250 FPS (1536 spf)
Compression mode : Lossy
Stream size : 178 MiB (18%)
Title : AC3 5.1
Language : Russian
Default : Yes
Forced : No

Menu
00:00:00.000 : en:Chapter 1
00:10:00.000 : en:Chapter 2
00:20:00.000 : en:Chapter 3
00:30:00.000 : en:Chapter 4
00:40:00.000 : en:Chapter 5
00:50:00.000 : en:Chapter 6
01:00:00.000 : en:Chapter 7
01:03:32.520 : en:Chapter 8
01:04:53.040 : en:Chapter 9

Часть 2. Смерти наперекор

x264 [info]: frame I:560 Avg QP:16.89 size: 47692
x264 [info]: frame P:25451 Avg QP:18.30 size: 22708
x264 [info]: frame B:75409 Avg QP:20.67 size: 6162
x264 [info]: consecutive B-frames: 2.7% 4.9% 16.7% 20.9% 21.2% 29.5% 3.1% 0.7% 0.2% 0.1% 0.0%

General
Unique ID : 229370288673512014217013505968547082815 (0xAC8F1C58DC54741B2313DB62521CB23F)
Complete name : S:FILMSОт Буга до Вислы (1980)От Буга до Вислы. Часть2. Смерти наперекор (1980) DVDRip-AVC - KORSAR.mkv
Format : Matroska
Format version : Version 4 / Version 2
File size : 1.18 GiB
Duration : 1 h 7 min
Overall bit rate : 2 495 kb/s
Movie name : От Буга до Вислы (1980) часть2. Смерти наперекор_rip_by_Cthulhu
Encoded date : UTC 2019-01-30 21:52:09
Writing application : mkvmerge v28.2.0 ('The Awakening') 64-bit
Writing library : libebml v1.3.6 + libmatroska v1.4.9
Cover : Yes
Attachments : cover.jpg

Video
ID : 1
Format : AVC
Format/Info : Advanced Video Codec
Format profile : High@L4.1
Format settings, CABAC : Yes
Format settings, RefFrames : 14 frames
Codec ID : V_MPEG4/ISO/AVC
Duration : 1 h 7 min
Bit rate : 2 109 kb/s
Width : 696 pixels
Height : 440 pixels
Display aspect ratio : 2.25:1
Original display aspect ratio : 2.25:1
Frame rate mode : Constant
Frame rate : 25.000 FPS
Color space : YUV
Chroma subsampling : 4:2:0
Bit depth : 8 bits
Scan type : Progressive
Bits/(Pixel*Frame) : 0.275
Stream size : 1 020 MiB (85%)
Writing library : x264 core 152 r2851kMod ba24899
Encoding settings : cabac=1 / ref=14 / deblock=1:-2:-1 / analyse=0x3:0x133 / me=umh / subme=11 / psy=1 / fade_compensate=0.00 / psy_rd=1.00:0.10 / mixed_ref=1 / me_range=48 / chroma_me=1 / trellis=2 / 8x8dct=1 / cqm=0 / deadzone=21,11 / fast_pskip=1 / chroma_qp_offset=-3 / threads=14 / lookahead_threads=3 / sliced_threads=0 / nr=0 / decimate=1 / interlaced=0 / bluray_compat=0 / constrained_intra=0 / bframes=10 / b_pyramid=2 / b_adapt=2 / b_bias=0 / direct=3 / weightb=1 / open_gop=0 / weightp=2 / keyint=250 / keyint_min=25 / scenecut=40 / intra_refresh=0 / rc=crf / mbtree=0 / crf=17.0000 / qcomp=0.60 / qpmin=0 / qpmax=39 / qpstep=4 / ip_ratio=1.40 / pb_ratio=1.30 / aq=2:1.00
Language : Russian
Default : Yes
Forced : No
Color range : Limited
Color primaries : BT.601 PAL
Transfer characteristics : BT.470 System B, BT.470 System G
Matrix coefficients : BT.601

Audio
ID : 2
Format : AC-3
Format/Info : Audio Coding 3
Mode extension : CM (complete main)
Format settings, Endianness : Big
Codec ID : A_AC3
Duration : 1 h 7 min
Bit rate mode : Constant
Bit rate : 384 kb/s
Channel(s) : 6 channels
Channel positions : Front: L C R, Side: L R, LFE
Sampling rate : 48.0 kHz
Frame rate : 31.250 FPS (1536 spf)
Compression mode : Lossy
Delay relative to video : 64 ms
Stream size : 186 MiB (15%)
Title : AC3 5.1
Language : Russian
Default : Yes
Forced : No

Menu
00:00:00.000 : en:Chapter 1
00:10:00.000 : en:Chapter 2
00:20:00.000 : en:Chapter 3
00:30:00.000 : en:Chapter 4
00:40:00.000 : en:Chapter 5
00:50:00.000 : en:Chapter 6
01:00:00.000 : en:Chapter 7
01:05:56.600 : en:Chapter 8
01:07:36.760 : en:Chapter 9



Скриншоты:
[+] Всего файлов в раздаче - 2:
От Буга до Вислы. Часть2. Смерти наперекор (1980) DVDRip-AVC - KORSAR.mkv1.18 GB
От Буга до Вислы. Часть1. Действовать самостоятельно (1980) DVDRip-AVC - KORSAR.mkv1,015.42 MB

Отзывы
Зарегистрируйтесь чтобы добавить комментарий.
Обратная связь
Copyleft ©