↑↓Torrent.by
Поиск
Логин: Регистрация
Пароль: Восстановить пароль
Загрузка...

Морфий (2008) WEB-DLRip-AVC

Скачать morfiy-2008-web-dlrip-avc.torrent
U Магнитная ссылка Размер: 2.18 GB Раздают: 123 Качают: 31 Добавлен: 2019-02-03 13:24:29
Морфий (2008) WEB-DLRip-AVC

Оригинальное название: Морфий
Год выхода: 2008
Жанр: драма
Режиссер: Алексей Балабанов
Сценарий: Сергей Бодров мл.
В ролях: Леонид Бичевин, Андрей Панин, Катарина Радивоевич, Ингеборга Дапкунайте, Светлана Письмиченко, Сергей Гармаш, Алексей Полуян, Агния Кузнецова, Юлия Хамитова, Дарья Циберкина, Василиса Миридонова и др.

О фильме:
Поздняя осень 1917 года. Молодой доктор Михаил Поляков получает назначение на должность земского врача в сельскую больницу. Как молодой врач, только закончивший медицинский институт, он сталкивается с трудностями начала врачебной карьеры. Первый же его пациент умирает от осложнения дифтерии. Боясь того, что он сам может заразиться этим заболеванием, он просит медсестру сделать ему сыворотку. К вечеру у него появляется жуткий зуд в месте укола. Для обезболивающего эффекта медсестра Анна вводит ему морфин. Почувствовав облегчение от наркотического эффекта, доктор просит медсестру повторить инъекцию, а позже втайне начинает делать себе уколы сам. В то же время ему удаётся успешно провести несколько сложных медицинских операций, что приносит ему хорошую репутацию среди населения, но нервная нагрузка истощает его всё больше. От этого он всё чаще начинает употреблять наркотик...

Страна: Россия
Продолжительность: 01:51:54
Язык: Русский

Файл
Кодек: х.264
Качество: WEB-DLRip-AVC
Видео: 1036x560 (1.85:1), 24.000 fps, AVC MPEG-4 (х.264), High@L4.1 ~2402 kbps, 0.173 bit/pixel
Аудио: 48 kHz, AC3 Dolby Digital, 3/2 (L,C,R,l,r) + LFE ch, ~384 kbps
Субтитры: русские [полные]


[+] Интересные факты
Фильм снят по мотивам рассказов Михаила Булгакова из цикла «Записки юного врача» (1925-1926) и рассказа «Морфий» (1927).

Роль доктора Полякова изначально должен был сыграть Сергей Бодров-младший, но этого не случилось по причине гибели Сергея в Кармадонском ущелье ещё в 2002 году.

Часть фильма снималась в городе Углич, Ярославской области, а также в городе Кашин, Тверской области.

В фильме звучат песни в исполнении Александра Вертинского: «Танго Магнолия», «Снежная колыбельная», «Кокаинетка».



[+] MediaInfo
General
Unique ID                        : 245802153859594294453182331705687821574 (0xB8EBC5D99550C3A19E3F0F3F8E844D06)
Complete name                    : E:Morfiy.2008_Klayd X.mkv
Format                           : Matroska
File size                        : 2.18 GiB
Duration                         : 1h 51mn
Overall bit rate                 : 2 788 Kbps
Encoded date                     : UTC 2018-07-25 18:33:50
Writing application              : mkvmerge v7.8.0 ('River Man') 32bit built on Mar 27 2015 16:18:02
Writing library                  : libebml v1.3.1 + libmatroska v1.4.2

Video
ID                               : 1
Format                           : AVC
Format/Info                      : Advanced Video Codec
Format profile                   : High@L4.1
Format settings, CABAC           : Yes
Format settings, ReFrames        : 14 frames
Codec ID                         : V_MPEG4/ISO/AVC
Duration                         : 1h 51mn
Bit rate                         : 2 402 Kbps
Width                            : 1 036 pixels
Height                           : 560 pixels
Display aspect ratio             : 1.850
Frame rate                       : 24.000 fps
Color space                      : YUV
Chroma subsampling               : 4:2:0
Bit depth                        : 8 bits
Scan type                        : Progressive
Bits/(Pixel*Frame)               : 0.173
Stream size                      : 1.84 GiB (84%)
Title                            : Морфий.2008
Writing library                  : x264 core 152 r2851kMod ba24899
Encoding settings                : cabac=1 / ref=14 / deblock=1:-2:-1 / analyse=0x3:0x113 / me=umh / subme=10 / psy=1 / fade_compensate=0.00 / psy_rd=1.01:0.00 / mixed_ref=1 / me_range=32 / chroma_me=1 / trellis=2 / 8x8dct=1 / cqm=0 / deadzone=21,11 / fast_pskip=0 / chroma_qp_offset=-2 / threads=12 / lookahead_threads=3 / sliced_threads=0 / nr=0 / decimate=0 / interlaced=0 / bluray_compat=0 / constrained_intra=0 / bframes=12 / b_pyramid=2 / b_adapt=2 / b_bias=0 / direct=3 / weightb=1 / open_gop=0 / weightp=2 / keyint=240 / keyint_min=24 / scenecut=40 / intra_refresh=0 / rc_lookahead=60 / rc=2pass / mbtree=0 / bitrate=2402 / ratetol=1.0 / qcomp=0.65 / qpmin=0 / qpmax=69 / qpstep=4 / cplxblur=20.0 / qblur=0.5 / vbv_maxrate=62500 / vbv_bufsize=78125 / nal_hrd=none / filler=0 / ip_ratio=1.30 / pb_ratio=1.30 / aq=3:0.70
Language                         : Russian
Color primaries                  : BT.709-5, BT.1361, IEC 61966-2-4, SMPTE RP177
Transfer characteristics         : BT.709-5, BT.1361
Matrix coefficients              : BT.709-5, BT.1361, IEC 61966-2-4 709, SMPTE RP177

Audio
ID                               : 2
Format                           : AC-3
Format/Info                      : Audio Coding 3
Mode extension                   : CM (complete main)
Codec ID                         : A_AC3
Duration                         : 1h 51mn
Bit rate mode                    : Constant
Bit rate                         : 384 Kbps
Channel(s)                       : 6 channels
Channel positions                : Front: L C R, Side: L R, LFE
Sampling rate                    : 48.0 KHz
Bit depth                        : 16 bits
Compression mode                 : Lossy
Stream size                      : 307 MiB (14%)
Title                            : AC-3; 16 bits 48 Khz; 5.1ch 384 Kbps; CBR (iTunes)
Language                         : Russian

Text
ID                               : 3
Format                           : UTF-8
Codec ID                         : S_TEXT/UTF8
Codec ID/Info                    : UTF-8 Plain Text
Title                            : Субтитры русские
Language                         : Russian



Скриншоты:
[+] Всего файлов в раздаче - 1:
Morfiy.2008_Klayd X.mkv2.18 GB

Похожие раздачи по запросу - морфий:
2017-12-07 U Морфий (2008) HDTV 1080p 2К4.05 GB ↑ 117 ↓ 45
2014-10-05 U Морфий (2008) DVDRip 2.05 GB ↑ 372 ↓ 22

Отзывы
Зарегистрируйтесь чтобы добавить комментарий.
Обратная связь
Copyleft ©