↑↓Torrent.by
Поиск
Логин: Регистрация
Пароль: Восстановить пароль
Загрузка...

Звезда родилась / A Star Is Born (2018) BDRip-HEVC 1080p от HANNIBAL | Лицензия

Скачать zvezda-rodilas-a-star-is-born-2018-bdrip-hevc-1080p-ot-hannibal-licenziya.torrent
U Магнитная ссылка Размер: 4.44 GB Раздают: 180 Качают: 20 Добавлен: 2019-02-03 17:50:41
Звезда родилась / A Star Is Born (2018) BDRip-HEVC 1080p от HANNIBAL | Лицензия

Название: Звезда родилась
Оригинальное название: A Star Is Born
Год выхода: 2018
Жанр: Мелодрама, музыка
Режиссер: Брэдли Купер
В ролях: Леди Гага, Брэдли Купер, Сэм Эллиотт, Дэйв Шаппелл, Алек Болдуин, Рафи Гаврон, Энтони Рамос, Эндрю Дайс Клэй, Майкл Харни, Д.Дж. Пирс, Уиллам Беллай

О фильме:
Кантри-музыкант Джексон Мейн, чья карьера быстро катится под откос, однажды знакомится с никому не известной талантливой певицей Элли. Между героями вспыхивает страстный роман. Джек помогает Элли добиться успеха. Но чем стремительнее набирает обороты музыкальная карьера Элли, тем сложнее ему мириться со своей увядающей славой.

Страна: США
Студия: 22 & Indiana Pictures, Gerber Pictures
Продолжительность: 02:15:45
Перевод: Дублированный [Лицензия]

Файл
Качество: BDRip-HEVC 1080p
Видео: HEVC/x.265, 1920x800, ~3788 Kbps
Звук 1: AC3, 6 ch, 448 Kbps  Дублированный [Лицензия]
Звук 2: AC3, 6 ch, 448 Kbps (Оригинал)
Субтитры: Русские(Forced, Full), Английские

Релиз:
[+] Mediainfo

General
Unique ID                   : 42878786604080225729794921858358504197 (0x20422766A4F5A372FB5189D2760AEB05)
Complete name               : F:[HEVC]A Star Is Born (2018) BDRip 1080p [HEVC] 10bit.mkv
Format                      : Matroska
Format version              : Version 4
File size                   : 4.44 GiB
Duration                    : 2 h 15 min
Overall bit rate            : 4 686 kb/s
Movie name                  : Звезда родилась
Deion                 : Опытный музыкант Джексон Мейн (Брэдли Купер) находит и влюбляется в пытающуюся пробиться к артистическому успеху Элли (Леди Гага). Она уже почти отказывается от своей мечты стать известной певицей... когда Джек уговоривает ее шагнуть под лучи прожекторов. Но хотя карьера Элли идет на взлет, личная сторона их отношений разрушается, так как Джек ведет непрерывную битву со своими внутренними демонами.
Encoded date                : UTC 2019-02-02 11:18:34
Writing application         : mkvmerge v25.0.0 ('Prog Noir') 64-bit
Writing library             : libebml v1.3.6 + libmatroska v1.4.9 / Lavf57.71.100
Attachments                 : poster.jpg
DATE                        : 2018-10-04
ENCODING_INFO               : MATROSKA,WEBM > MKV 1080p 10-bit / H264 > X265 CRF 19.5 Medium
GENRE                       : Драма
HD_VIDEO                    : 1
ITUNEXTC                    : ru-movie|18+|400|
Language                    : und
MEDIA_TYPE                  : 9
ORIGINAL_TITLE              : A Star Is Born (2018)
SYNOPSIS                    : Опытный музыкант Джексон Мейн (Брэдли Купер) находит и влюбляется в пытающуюся пробиться к артистическому успеху Элли (Леди Гага). Она уже почти отказывается от своей мечты стать известной певицей... когда Джек уговоривает ее шагнуть под лучи прожекторов. Но хотя карьера Элли идет на взлет, личная сторона их отношений разрушается, так как Джек ведет непрерывную битву со своими внутренними демонами.

Video
ID                          : 1
Format                      : HEVC
Format/Info                 : High Efficiency Video Coding
Format profile              : Main 10@L4.1@High
Codec ID                    : V_MPEGH/ISO/HEVC
Duration                    : 2 h 15 min
Bit rate                    : 3 788 kb/s
Width                       : 1 920 pixels
Height                      : 800 pixels
Display aspect ratio        : 2.40:1
Frame rate mode             : Constant
Frame rate                  : 23.976 (24000/1001) FPS
Color space                 : YUV
Chroma subsampling          : 4:2:0
Bit depth                   : 10 bits
Bits/(Pixel*Frame)          : 0.103
Stream size                 : 3.59 GiB (81%)
Writing library             : x265 2.9+9-f74003e88622:[Windows][GCC 8.2.0][64 bit] 10bit
Encoding settings           : cpuid=1111039 / frame-threads=7 / numa-pools=6 / wpp / no-pmode / no-pme / no-psnr / no-ssim / log-level=3 / input-csp=1 / input-res=1920x800 / interlace=0 / total-frames=0 / level-idc=41 / high-tier=1 / uhd-bd=0 / ref=4 / allow-non-conformance / no-repeat-headers / annexb / no-aud / no-hrd / info / hash=0 / no-temporal-layers / open-gop / min-keyint=24 / keyint=240 / gop-lookahead=0 / bframes=8 / b-adapt=2 / b-pyramid / bframe-bias=0 / rc-lookahead=20 / lookahead-slices=5 / scenecut=40 / radl=0 / no-intra-refresh / ctu=64 / min-cu-size=8 / rect / amp / max-tu-size=32 / tu-inter-depth=1 / tu-intra-depth=1 / limit-tu=0 / rdoq-level=0 / dynamic-rd=0.00 / no-ssim-rd / signhide / no-tskip / nr-intra=0 / nr-inter=0 / no-constrained-intra / no-strong-intra-smoothing / max-merge=2 / limit-refs=3 / no-limit-modes / me=3 / subme=7 / merange=57 / temporal-mvp / weightp / no-weightb / no-analyze-src-pics / deblock=-3:-3 / no-sao / no-sao-non-deblock / rd=3 / no-early-skip / rskip / no-fast-intra / no-tskip-fast / no-cu-lossless / no-b-intra / no-splitrd-skip / rdpenalty=0 / psy-rd=2.00 / psy-rdoq=0.00 / no-rd-refine / no-lossless / cbqpoffs=0 / crqpoffs=0 / rc=crf / crf=19.5 / qcomp=0.60 / qpstep=4 / stats-write=0 / stats-read=0 / vbv-maxrate=50000 / vbv-bufsize=50000 / vbv-init=0.9 / crf-max=30.0 / crf-min=0.0 / ipratio=1.40 / pbratio=1.30 / aq-mode=1 / aq-strength=1.00 / cutree / zone-count=0 / no-strict-cbr / qg-size=32 / no-rc-grain / qpmax=69 / qpmin=0 / no-const-vbv / sar=1 / overscan=0 / videoformat=5 / range=0 / colorprim=1 / transfer=1 / colormatrix=1 / chromaloc=0 / display-window=0 / max-cll=0,0 / min-luma=0 / max-luma=1023 / log2-max-poc-lsb=8 / vui-timing-info / vui-hrd-info / slices=1 / no-opt-qp-pps / no-opt-ref-list-length-pps / no-multi-pass-opt-rps / scenecut-bias=0.05 / no-opt-cu-delta-qp / no-aq-motion / no-hdr / no-hdr-opt / no-dhdr10-opt / no-idr-recovery-sei / analysis-reuse-level=5 / scale-factor=0 / refine-intra=0 / refine-inter=0 / refine-mv=0 / no-limit-sao / ctu-info=0 / no-lowpass-dct / refine-mv-type=0 / copy-pic=1 / max-ausize-factor=1.0 / no-dynamic-refine / no-single-sei
Language                    : English
Default                     : Yes
Forced                      : No
Color range                 : Limited
Color primaries             : BT.709
Transfer characteristics    : BT.709
Matrix coefficients         : BT.709

Audio #1
ID                          : 5
Format                      : AC-3
Format/Info                 : Audio Coding 3
Commercial name             : Dolby Digital
Codec ID                    : A_AC3
Duration                    : 2 h 15 min
Bit rate mode               : Constant
Bit rate                    : 448 kb/s
Channel(s)                  : 6 channels
Channel layout              : L R C LFE Ls Rs
Sampling rate               : 48.0 kHz
Frame rate                  : 31.250 FPS (1536 SPF)
Bit depth                   : 16 bits
Compression mode            : Lossy
Stream size                 : 435 MiB (10%)
Title                       : Дублированный
Language                    : Russian
Service kind                : Complete Main
Default                     : Yes
Forced                      : Yes

Audio #2
ID                          : 6
Format                      : AC-3
Format/Info                 : Audio Coding 3
Commercial name             : Dolby Digital
Codec ID                    : A_AC3
Duration                    : 2 h 15 min
Bit rate mode               : Constant
Bit rate                    : 448 kb/s
Channel(s)                  : 6 channels
Channel layout              : L R C LFE Ls Rs
Sampling rate               : 48.0 kHz
Frame rate                  : 31.250 FPS (1536 SPF)
Bit depth                   : 16 bits
Compression mode            : Lossy
Stream size                 : 435 MiB (10%)
Title                       : Оригинал
Language                    : English
Service kind                : Complete Main
Default                     : No
Forced                      : No

Text #1
ID                          : 2
Format                      : UTF-8
Codec ID                    : S_TEXT/UTF8
Codec ID/Info               : UTF-8 Plain Text
Duration                    : 2 h 14 min
Bit rate                    : 10 b/s
Count of elements           : 191
Stream size                 : 10.0 KiB (0%)
Title                       : Forced
Language                    : Russian
Default                     : Yes
Forced                      : Yes

Text #2
ID                          : 3
Format                      : UTF-8
Codec ID                    : S_TEXT/UTF8
Codec ID/Info               : UTF-8 Plain Text
Duration                    : 2 h 14 min
Bit rate                    : 95 b/s
Count of elements           : 1563
Stream size                 : 94.6 KiB (0%)
Title                       : Full
Language                    : Russian
Default                     : No
Forced                      : No

Text #3
ID                          : 4
Format                      : UTF-8
Codec ID                    : S_TEXT/UTF8
Codec ID/Info               : UTF-8 Plain Text
Duration                    : 2 h 14 min
Bit rate                    : 70 b/s
Count of elements           : 2151
Stream size                 : 69.3 KiB (0%)
Title                       : Full
Language                    : English
Default                     : No
Forced                      : No

Menu
00:00:00.000                : :Capítulo 01
00:08:03.316                : :Capítulo 02
00:15:25.675                : :Capítulo 03
00:20:26.100                : :Capítulo 04
00:29:59.840                : :Capítulo 05
00:36:07.832                : :Capítulo 06
00:38:33.520                : :Capítulo 07
00:49:23.669                : :Capítulo 08
00:54:12.291                : :Capítulo 09
00:56:41.648                : :Capítulo 10
01:07:03.645                : :Capítulo 11
01:15:37.533                : :Capítulo 12
01:21:02.357                : :Capítulo 13
01:24:22.015                : :Capítulo 14
01:34:38.298                : :Capítulo 15
01:43:44.802                : :Capítulo 16
01:50:53.063                : :Capítulo 17
02:01:20.607                : :Capítulo 18
02:05:20.430                : :Capítulo 19




Скриншоты:
[+] Всего файлов в раздаче - 1:
A Star Is Born (2018) BDRip 1080p [HEVC] 10bit.mkv4.44 GB

Показать еще раздачи по запросу звезда:
2019-01-28 U Звезда родилась / A Star Is Born (2018) HDRip от Scarabey | Лицензия 1.45 GB ↑ 405 ↓ 12
2019-01-26 U Звезда родилась / A Star Is Born (2018) BDRip 720p от селезень | Лицензия 7.64 GB ↑ 154 ↓ 116
2019-01-26 U Звезда родилась / A Star Is Born (2018) BDRip от MegaPeer | Лицензия 1.46 GB ↑ 980 ↓ 30
2019-01-24 U Звезда родилась / A Star Is Born (2018) BDRip 1080p от селезень | iTunes 12.32 GB ↑ 92 ↓ 81
2019-01-16 U Звезда родилась / A Star Is Born (2018) WEB-DLRip от MegaPeer | iTunes 1.46 GB ↑ 353 ↓ 82
2018-09-22 U Звезда шерифа / Одинокая звезда / Lone Star (1996) WEB-DL 1080p от ExKinoRay | P, A 6.69 GB ↑ 314 ↓ 21
2018-04-15 U Маша и медведь: Звезда с неба [70] (2018) WEB-DL 720p 74.25 MB ↑ 702 ↓ 53

Отзывы
Зарегистрируйтесь чтобы добавить комментарий.
Обратная связь
Copyleft ©