↑↓Torrent.by
Поиск
Логин: Регистрация
Пароль: Восстановить пароль
Загрузка...

Что? Где? Когда? Дети XXI века [01 из 03] (2019) HDTVRip от GeneralFilm

Скачать chto-gde-kogda-deti-xxi-veka-01-iz-03-2019-hdtvrip-ot-generalfilm.torrent
U Магнитная ссылка Размер: 901.30 MB Раздают: 92 Качают: 20 Добавлен: 2019-02-03 21:18:38
Что? Где? Когда? Дети XXI века [01 из 03] (2019) HDTVRip от GeneralFilm

Год выпуска: 2019
Жанр:  Телевизионная игра, интеллектуальное шоу, познавательный, развлекательный
Выпущено: Россия, Продюсерский центр "ИГРА-ТВ"
Ведущий: Борис Крюк

О фильме: Экспериментальная серия игр "Что? Где? Когда?" с участием школьников. Во время этой серии знатоки клуба "Что? Где? Когда?" перевоплотятся в телезрителей, а знатоками станут школьники - дети XXI века. Будет сыграно три игры. Победителем серии станет команда, которая выиграет с наиболее крупным счётом.

Качество: HDTVRip
Видео: XviD, ~ 1800 Кбит/с, 720x400
Аудио: Русский (AC3, 2 ch, 192 Кбит/с)
Продолжительность: 1 х ~ 01:00:00
Перевод: Не требуется
Субтитры: нет

Релиз:
[+] Анонс

В первой игре – 21 января - примет участие команда «Школа «Росатома», в составе которой играют школьники из разных городов России, где расположены предприятия Госкорпорации "Росатом".

В составе команды: Елизавета Карпова (г. Тверь), Константин Горшков (г. Удомля), Валерий Вилков и Борис Бакулевский (г. Снежинск), Никита Бондарев и капитан Кирилл Емелин (г. Саров).

Во второй игре - 4 февраля - сыграет команда из Перми. В 2017 году ребята завоевали титул Чемпионов Европы по игре «Что? Где? Когда?» среди школьников 8-9 классов.

В составе команды: Максим Лукин, Александр Луценко, Олег Одинцов, Максим Няшин, Василий Онучин. Капитан – Екатерина Постнова.

В третьей игре – 11 февраля - сыграют школьники из Санкт-Петербурга – Чемпионы России по игре по игре «Что? Где? Когда?» среди учащихся 8-9 классов.

В составе команды: Максим Богословский, Дмитрий Седов, Денис Потехин, Александр Желтов, Илья Фомин. Капитан – Артём Савочкин.



[+] MediaInfo

Общее
Полное имя                               : D:Chto.Gde.Kogda.Deti XXI veka.2019.HDTVRip.GeneralFilm1.Chto.Gde.Kogda.Deti XXI veka.2019.HDTVRip.GeneralFilm.avi
Формат                                   : AVI
Формат/Информация                        : Audio Video Interleave
Размер файла                             : 901 Мбайт
Продолжительность                        : 1 ч. 3 м.
Общий поток                              : 1987 Кбит/сек

Видео
Идентификатор                            : 0
Формат                                   : MPEG-4 Visual
Профиль формата                          : Advanced Simple@L5
Параметр BVOP формата                    : 1
Параметр QPel формата                    : Нет
Параметр GMC формата                     : Без точки перехода
Параметр матрицы формата                 : Выборочная
Идентификатор кодека                     : XVID
Идентификатор кодека/Подсказка           : XviD
Продолжительность                        : 1 ч. 3 м.
Битрейт                                  : 1783 Кбит/сек
Ширина                                   : 720 пикселей
Высота                                   : 400 пикселей
Соотношение сторон                       : 16:9
Частота кадров                           : 25,000 кадров/сек
Цветовое пространство                    : YUV
Субдискретизация насыщенности            : 4:2:0
Битовая глубина                          : 8 бит
Тип развёртки                            : Прогрессивная
Метод сжатия                             : С потерями
Бит/(Пиксели*Кадры)                      : 0.248
Размер потока                            : 809 Мбайт (90%)
Библиотека кодирования                   : XviD 1.2.1 (UTC 2008-12-04)

Аудио
Идентификатор                            : 1
Формат                                   : AC-3
Формат/Информация                        : Audio Coding 3
Расширение режима                        : CM (complete main)
Параметр Endianness формата              : Big
Идентификатор кодека                     : 2000
Продолжительность                        : 1 ч. 3 м.
Вид битрейта                             : Постоянный
Битрейт                                  : 192 Кбит/сек
Каналы                                   : 2 канала
Расположение каналов                     : Front: L R
Частота                                  : 48,0 КГц
Частота кадров                           : 31,250 кадров/сек (1536 spf)
Битовая глубина                          : 16 бит
Метод сжатия                             : С потерями
Размер потока                            : 87,1 Мбайт (10%)
Выравнивание                             : Соединение по промежуткам
Продолжительность промежутка             : 32  мс. (0,80 видеокадр)




Скриншоты:
[+] Всего файлов в раздаче - 1:
01.Chto.Gde.Kogda.Deti XXI veka.2019.HDTVRip.GeneralFilm.avi901.30 MB

Показать еще раздачи по запросу когда:
2019-05-13 U Когда крепкие груди выпрыгивают наружу / Wenn die prallen Möpse hüpfen (1974) DVDRip-AVC от ExKinoRay | L1 745.23 MB ↑ 474 ↓ 95
2019-04-23 U Что? Где? Когда? Весенняя серия игр [01-05 из 05] (2019) HDTVRip от GeneralFilm 4.31 GB ↑ 69 ↓ 102
2019-04-16 U Что? Где? Когда? Весенняя серия игр [01-04 из 05] (2019) HDTVRip от GeneralFilm 3.34 GB ↑ 86 ↓ 79
2019-04-08 U Что? Где? Когда? Весенняя серия игр [01-03 из 05] (2019) HDTVRip от GeneralFilm 2.51 GB ↑ 67 ↓ 190
2019-03-25 U Что? Где? Когда? Весенняя серия игр [01-02 из 05] (2019) HDTVRip от GeneralFilm 1.71 GB ↑ 215 ↓ 219
2019-03-11 U Что? Где? Когда? Весенняя серия игр [01 из 05] (2019) HDTV 1080i от GeneralFilm 3.69 GB ↑ 52 ↓ 12
2019-03-11 U Что? Где? Когда? Весенняя серия игр [01 из 05] (2019) HDTVRip от GeneralFilm 932.64 MB ↑ 198 ↓ 21

Отзывы
Зарегистрируйтесь чтобы добавить комментарий.
Обратная связь
Copyleft ©