↑↓Torrent.by
Поиск
Логин: Регистрация
Пароль: Восстановить пароль
Загрузка...

Следствие вели... с Леонидом Каневским. Женщина в красном [03.02] (2019) WEBRip от GeneralFilm

Скачать sledstvie-veli-s-leonidom-kanevskim-zhenschina-v-krasnom-03-02-2019-webrip-ot-generalfilm.torrent
U Магнитная ссылка Размер: 587.67 MB Раздают: 23 Качают: 10 Добавлен: 2019-02-04 02:34:11
Следствие вели... с Леонидом Каневским. Женщина в красном [03.02] (2019) WEBRip от GeneralFilm

Год выпуска: 2019
Жанр:  Документальный, детектив, криминал, расследование, история
Выпущено: Россия, НТВ
Режиссер: Игорь Ромащенко, Борис Фёдоров
Ведущий: Леонид Каневский

О фильме: 1985 год. В маленьком карельском поселке обнаруживают труп женщины, одетой во все красное. Некоторые люди видели ее незадолго до трагедии. Красавица бродила по улицам, как будто в поисках кого-то. За что ее погубили? И откуда взялась эта загадочная «дама в красном»?

Качество: WEBRip
Видео: XviD, 1791 Кбит/с, 720x400
Аудио: Русский (AC3, 2 ch, 192 Кбит/с)
Продолжительность: 00:41:14
Перевод: Не требуется
Субтитры: нет

Релиз:
[+] MediaInfo

Общее
Полное имя                               : D:Sledstvie.veli.(2019.02.03).WEBRip.GeneralFilm.avi
Формат                                   : AVI
Формат/Информация                        : Audio Video Interleave
Размер файла                             : 588 Мбайт
Продолжительность                        : 41 м. 14 с.
Общий поток                              : 1992 Кбит/сек
Программа кодирования                    : VirtualDubMod 1.5.10.3 | www.virtualdub-fr.org || (build 2550/release)
Библиотека кодирования                   : VirtualDubMod build 2550/release

Видео
Идентификатор                            : 0
Формат                                   : MPEG-4 Visual
Профиль формата                          : Advanced Simple@L5
Параметр BVOP формата                    : 1
Параметр QPel формата                    : Нет
Параметр GMC формата                     : Без точки перехода
Параметр матрицы формата                 : Выборочная
Идентификатор кодека                     : XVID
Идентификатор кодека/Подсказка           : XviD
Продолжительность                        : 41 м. 14 с.
Битрейт                                  : 1791 Кбит/сек
Ширина                                   : 720 пикселей
Высота                                   : 400 пикселей
Соотношение сторон                       : 16:9
Частота кадров                           : 25,000 кадров/сек
Цветовое пространство                    : YUV
Субдискретизация насыщенности            : 4:2:0
Битовая глубина                          : 8 бит
Тип развёртки                            : Прогрессивная
Метод сжатия                             : С потерями
Бит/(Пиксели*Кадры)                      : 0.249
Размер потока                            : 528 Мбайт (90%)
Библиотека кодирования                   : XviD 1.2.1 (UTC 2008-12-04)

Аудио
Идентификатор                            : 1
Формат                                   : AC-3
Формат/Информация                        : Audio Coding 3
Расширение режима                        : CM (complete main)
Параметр Endianness формата              : Big
Идентификатор кодека                     : 2000
Продолжительность                        : 41 м. 14 с.
Вид битрейта                             : Постоянный
Битрейт                                  : 192 Кбит/сек
Каналы                                   : 2 канала
Расположение каналов                     : Front: L R
Частота                                  : 48,0 КГц
Частота кадров                           : 31,250 кадров/сек (1536 spf)
Битовая глубина                          : 16 бит
Метод сжатия                             : С потерями
Размер потока                            : 56,6 Мбайт (10%)
Выравнивание                             : Разделение по промежуткам
Продолжительность промежутка             : 40  мс. (1,00 видеокадр)
Время предзагрузки промежутка            : 500  мс.




Скриншоты:
[+] Всего файлов в раздаче - 1:
Sledstvie.veli.(2019.02.03).WEBRip.GeneralFilm.avi587.67 MB

Показать еще раздачи по запросу следствие:
2019-05-19 U Следствие вели... с Леонидом Каневским. Дом, где стекает кровь [эфир от 19.05] (2019) WEBRip 1080p от ExKinoRay 1.77 GB ↑ 64 ↓ 16
2019-04-29 U Следствие вели... с Леонидом Каневским. Золотая паутина [эфир от 28.04] (2019) WEBRip 1080p от ExKinoRay 1.75 GB ↑ 73 ↓ 11
2019-04-01 U Следствие вели... с Леонидом Каневским. Будьте моей... любовницей! [эфир от 31.03] (2019) WEBRip 1080p от ExKinoRay 1.78 GB ↑ 62 ↓ 8
2019-03-18 U Следствие вели... с Леонидом Каневским. Это совершил Ягуар [эфир от 17.03] (2019) WEBRip 1080p от ExKinoRay 1.77 GB ↑ 47 ↓ 7
2019-03-11 U Следствие вели... с Леонидом Каневским. Рука на снегу [эфир от 10.03] (2019) WEBRip 1080p от ExKinoRay 1.77 GB ↑ 45 ↓ 8
2019-02-25 U Следствие вели... с Леонидом Каневским. Самая обаятельная и привлекательная [эфир от 24.02] (2019) WEBRip 1080p от ExKinoRay 1.76 GB ↑ 76 ↓ 7
2019-02-18 U Следствие вели... с Леонидом Каневским. Возвращение Фантомасов [эфир от 17.02] (2019) WEBRip 1080p от ExKinoRay 1.80 GB ↑ 62 ↓ 13

Отзывы
kolyan
Спасибо! А то испугался, что проект прикрыли))

Зарегистрируйтесь чтобы добавить комментарий.
Обратная связь
Copyleft ©