↑↓Torrent.by
Поиск
Логин: Регистрация
Пароль: Восстановить пароль
Загрузка...

Молодежка. Лёд и пламя [06х01-40 из 44] (2018) WEB-DLRip от GeneralFilm

Скачать molodezhka-led-i-plamya-06h01-40-iz-44-2018-web-dlrip-ot-generalfilm.torrent
U Магнитная ссылка Размер: 17.42 GB Раздают: 19 Качают: 251 Добавлен: 2019-02-04 02:35:12
Молодежка. Лёд и пламя [06х01-40 из 44] (2018) WEB-DLRip от GeneralFilm

Год выпуска: 2018
Жанр:  Драма, спорт
Выпущено: Россия, «ООО Арт Пикчерс Вижн» при поддержке Континентальной Хоккейной Лиги
Режиссер: Сергей Арланов
В ролях: Серафима Низовская, Владимир Зайцев, Сергей Габриэлян, Денис Никифоров, Валентина Ананьина, Сергей Комаров (II), Михаил Жигалов, Фёдор Бондарчук, Анатолий Лобоцкий, Ксения Лаврова-Глинка, Макар Запорожский, Александр Соколовский, Влад Канопка, Илья Коробко, Игорь Огурцов, Анна Михайловская, Иван Жвакин

О фильме: Главных героев ждут новые сражения на льду, но уже в рядах Высшей Хоккейной Лиги. После триумфального завершения сезона под руководством Макеева главных героев ждет карьера в ВХЛ. Ребята вступают на взрослый путь в составе клуба «Бурые Медведи», где их ждут не только заманчивые перспективы, но и непростой прием старожилов. Хватит ли опыта бывшим звездам молодежной команды, чтобы сыграться с ними и найти общий язык

Качество: WEB-DLRip
Видео: XviD build 73, 720x400 (16:9), 25.000 fps, ~ 1160 Kbps (~ 0.160 bit/pixel)
Аудио: 48.0 kHz, MP3, 2/0 ch, 128 kbps
Продолжительность: 40 x ~ 00:45:00
Перевод: Не требуется
Cубтитры: нет

Релиз:


[+] MediaInfo

General
Complete name               : D:RazdachiMolodezhka.s06.2018.WEB-DLRip.GeneralFilmMolodezhka.s06.e01.avi
Format                      : AVI
Format/Info                 : Audio Video Interleave
File size                   : 446 MiB
Duration                    : 48 min 14 s
Overall bit rate            : 1 293 kb/s
Writing application         : VirtualDubMod 1.5.10.3 | www.virtualdub-fr.org || (build 2550/release)
Writing library             : VirtualDubMod build 2550/release

Video
ID                          : 0
Format                      : MPEG-4 Visual
Format profile              : Advanced Simple@L5
Format settings             : BVOP1 / Custom Matrix
Format settings, BVOP       : 1
Format settings, QPel       : No
Format settings, GMC        : No warppoints
Format settings, Matrix     : Custom
Codec ID                    : XVID
Codec ID/Hint               : XviD
Duration                    : 48 min 14 s
Bit rate                    : 1 155 kb/s
Width                       : 720 pixels
Height                      : 400 pixels
Display aspect ratio        : 16:9
Frame rate                  : 25.000 FPS
Color space                 : YUV
Chroma subsampling          : 4:2:0
Bit depth                   : 8 bits
Scan type                   : Progressive
Compression mode            : Lossy
Bits/(Pixel*Frame)          : 0.160
Stream size                 : 399 MiB (89%)
Writing library             : XviD 73

Audio
ID                          : 1
Format                      : MPEG Audio
Format version              : Version 1
Format profile              : Layer 3
Codec ID                    : 55
Codec ID/Hint               : MP3
Duration                    : 48 min 14 s
Bit rate mode               : Constant
Bit rate                    : 128 kb/s
Channel(s)                  : 2 channels
Sampling rate               : 48.0 kHz
Frame rate                  : 41.667 FPS (1152 SPF)
Compression mode            : Lossy
Stream size                 : 44.2 MiB (10%)
Alignment                   : Aligned on interleaves
Interleave, duration        : 40  ms (1.00 video frame)
Interleave, preload duratio : 504  ms
Writing library             : LAME3.99r
Encoding settings           : -m s -V 4 -q 2 -lowpass 17 -b 128



Скриншоты:
[+] Всего файлов в раздаче - 40:
Molodezhka.s06.e01.avi446.09 MB
Molodezhka.s06.e02.avi446.05 MB
Molodezhka.s06.e03.avi445.90 MB
Molodezhka.s06.e04.avi446.01 MB
Molodezhka.s06.e05.avi446.06 MB
Molodezhka.s06.e06.avi446.04 MB
Molodezhka.s06.e07.avi445.89 MB
Molodezhka.s06.e08.avi446.06 MB
Molodezhka.s06.e09.avi445.94 MB
Molodezhka.s06.e10.avi445.96 MB
Molodezhka.s06.e11.avi445.86 MB
Molodezhka.s06.e12.avi445.98 MB
Molodezhka.s06.e13.avi445.94 MB
Molodezhka.s06.e14.avi446.13 MB
Molodezhka.s06.e15.avi446.04 MB
Molodezhka.s06.e16.avi446.16 MB
Molodezhka.s06.e17.avi446.09 MB
Molodezhka.s06.e18.avi445.97 MB
Molodezhka.s06.e19.avi446.17 MB
Molodezhka.s06.e20.avi446.01 MB
Molodezhka.s06.e21.avi446.04 MB
Molodezhka.s06.e22.avi445.99 MB
Molodezhka.s06.e23.avi446.09 MB
Molodezhka.s06.e24.avi446.19 MB
Molodezhka.s06.e25.avi445.93 MB
Molodezhka.s06.e26.avi445.89 MB
Molodezhka.s06.e27.avi446.19 MB
Molodezhka.s06.e28.avi446.13 MB
Molodezhka.s06.e29.avi446.06 MB
Molodezhka.s06.e30.avi446.03 MB
Molodezhka.s06.e31.avi446.17 MB
Molodezhka.s06.e32.avi446.11 MB
Molodezhka.s06.e33.avi445.92 MB
Molodezhka.s06.e34.avi446.11 MB
Molodezhka.s06.e35.avi445.98 MB
Molodezhka.s06.e36.avi445.81 MB
Molodezhka.s06.e37.avi445.83 MB
Molodezhka.s06.e38.avi445.93 MB
Molodezhka.s06.e39.avi446.13 MB
Molodezhka.s06.e40.avi445.01 MB

Показать еще раздачи по запросу молодежка:
2019-02-10 U Молодежка. Лёд и пламя [06х01-43 из 44] (2018) WEB-DLRip от Files-x 24.50 GB ↑ 48 ↓ 426
2019-02-09 U Молодежка. Лёд и пламя [06х01-42 из 44] (2018) WEB-DLRip от Files-x 23.93 GB ↑ 35 ↓ 258
2019-02-07 U Молодежка. Лёд и пламя [06х01-41 из 44] (2018) WEB-DLRip от Files-x 23.36 GB ↑ 35 ↓ 617
2019-02-04 U Молодежка. Лёд и пламя [06х01-40 из 44] (2018) WEB-DL 720p от Files-x 49.40 GB ↑ 30 ↓ 524
2019-02-03 U Молодежка. Лёд и пламя [06х01-39 из 44] (2018) WEB-DL 720p от Files-x 48.16 GB ↑ 42 ↓ 345
2019-02-03 U Молодежка. Лёд и пламя [06х01-39 из 44] (2018) WEB-DLRip от Files-x 22.21 GB ↑ 48 ↓ 484
2019-02-02 U Молодежка. Лёд и пламя [06х01-38 из 44] (2018) WEB-DLRip от Files-x 21.64 GB ↑ 64 ↓ 744

Отзывы
Зарегистрируйтесь чтобы добавить комментарий.
Обратная связь
Copyleft ©