↑↓Torrent.by
Поиск
Логин: Регистрация
Пароль: Восстановить пароль
Загрузка...

Укрась прощальное утро цветами обещания / Sayonara no asa ni yakusoku no hana o kazaro (2018) BDRip 720p | iTunes

Скачать ukras-proschalnoe-utro-cvetami-obeschaniya-sayonara-no-asa-ni-yakusoku-hana-o-kazaro-2018-bdrip-720p-itunes.torrent
U Магнитная ссылка Размер: 4.36 GB Раздают: 92 Качают: 1 Добавлен: 2019-02-04 02:37:19
Укрась прощальное утро цветами обещания / Sayonara no asa ni yakusoku no hana o kazaro (2018) BDRip 720p | iTunes

Название: Укрась прощальное утро цветами обещания
Оригинальное название: Sayonara no asa ni yakusoku no hana o kazaro / Maquia: When the Promised Flower Blooms
Год выхода: 2018
Жанр: Аниме, мультфильм, драма, мелодрама, приключения, фэнтези
Страна: Япония
Перевод: Дублированный | iTunes + субтитры на ~ 2мин
Продолжительность: 01:54:48
Режиссер: Мари Окада
В ролях: Манака Ивами, Ирино Мию, Ёко Хикаса, Хирата Хироаки, Ёсимаса Хосоя, Юки Кадзи, Аи Каяно, Мисаки Куно, Рина Сато, Миюки Савасиро и др.
Роли дублировали: Елена Симанович, Анна Гребенщикова, Василий Марков, Михаил Каданин, Мария Бондаренко.

О фильме: Красавица Макия — из рода бессмертных. На протяжении веков многие армии пытались захватить её народ, чтобы завладеть секретом вечной жизни. И вот теперь, когда город разрушен, девушка прячется в лесу. Здесь она встречает потерявшего родителей маленького мальчика Эриала и начинает о нём заботиться. Проходят годы, мальчик превращается в прекрасного юношу, и у беглецов возникают чувства друг к другу. Но Макия понимает, что Эриал — простой человек, а значит, он смертен.

Файл
Качество: BDRip 720p
Видео: MPEG-4 AVC, 1280x720, 4600 kbps, 23,976 fps
Звук#1: русский, AC3, 5.1 ch, 48 kHz, 384 kbps | iTunes
Звук#2: японский, AC3, 5.1 ch, 48 kHz, 448 kbps | оригинал
Субтитры: русские (форс., полные от Leonard Snow)
[+] MI
General
Уникальный идентификатор                 : 187651645985810735619320034377511764367 (0x8D2C647518E6D231B6F1A19B59AC818F)
Полное имя                               : F:TorrentSayonaranoasaniyakusokunohanaokazaroBDRip720p.mkv
Формат                                   : Matroska
Версия формата                           : Version 4 / Version 2
Размер файла                             : 4.36 GiB
Продолжительность                        : 1 h 54 min
Общий поток                              : 5 433 kb/s
Дата кодирования                         : UTC 2018-11-18 09:55:20
Программа кодирования                    : mkvmerge v9.5.0 ('Quiet Fire') 64bit
Библиотека кодирования                   : libebml v1.3.4 + libmatroska v1.4.5

Video
Идентификатор                            : 1
Формат                                   : AVC
Формат/Информация                        : Advanced Video Codec
Профиль формата                          : High@L4.1
Настройки формата                        : CABAC / 9 Ref Frames
Параметр CABAC формата                   : Yes
Параметр RefFrames формата               : 9 frames
Идентификатор кодека                     : V_MPEG4/ISO/AVC
Продолжительность                        : 1 h 54 min
Битрейт                                  : 4 600 kb/s
Ширина                                   : 1 280 pixels
Высота                                   : 720 pixels
Соотношение сторон                       : 16:9
Режим частоты кадров                     : Constant
Частота кадров                           : 23.976 (24000/1001) FPS
Цветовое пространство                    : YUV
Субдискретизация насыщенности            : 4:2:0
Битовая глубина                          : 8 bits
Тип развёртки                            : Progressive
Бит/(Пиксели*Кадры)                      : 0.208
Размер потока                            : 3.69 GiB (85%)
Библиотека кодирования                   : x264 core 157 r2901M 7d0ff22
Настройки программы                      : cabac=1 / ref=9 / deblock=1:0:0 / analyse=0x3:0x133 / me=umh / subme=11 / psy=1 / psy_rd=1.00:0.00 / mixed_ref=1 / me_range=32 / chroma_me=1 / trellis=2 / 8x8dct=1 / cqm=0 / deadzone=21,11 / fast_pskip=0 / chroma_qp_offset=-2 / threads=9 / lookahead_threads=2 / sliced_threads=0 / nr=0 / decimate=0 / interlaced=0 / bluray_compat=0 / constrained_intra=0 / bframes=10 / b_pyramid=2 / b_adapt=2 / b_bias=0 / direct=3 / weightb=1 / open_gop=0 / weightp=2 / keyint=240 / keyint_min=24 / scenecut=40 / intra_refresh=0 / rc_lookahead=120 / rc=2pass / mbtree=0 / bitrate=4600 / ratetol=1.0 / qcomp=0.70 / qpmin=0 / qpmax=69 / qpstep=4 / cplxblur=20.0 / qblur=0.5 / vbv_maxrate=50000 / vbv_bufsize=62500 / nal_hrd=none / filler=0 / ip_ratio=1.40 / pb_ratio=1.30 / aq=1:1.00
Язык                                     : Japanese
Default                                  : Yes
Forced                                   : No

Audio #1
Идентификатор                            : 2
Формат                                   : AC-3
Формат/Информация                        : Audio Coding 3
Идентификатор кодека                     : A_AC3
Продолжительность                        : 1 h 54 min
Вид битрейта                             : Constant
Битрейт                                  : 384 kb/s
Каналы                                   : 6 channels
Расположение каналов                     : Front: L C R, Side: L R, LFE
Частота                                  : 48.0 kHz
Частота кадров                           : 31.250 FPS (1536 SPF)
Битовая глубина                          : 16 bits
Метод сжатия                             : Lossy
Размер потока                            : 315 MiB (7%)
Язык                                     : Russian
Default                                  : Yes
Forced                                   : No

Audio #2
Идентификатор                            : 3
Формат                                   : AC-3
Формат/Информация                        : Audio Coding 3
Идентификатор кодека                     : A_AC3
Продолжительность                        : 1 h 54 min
Вид битрейта                             : Constant
Битрейт                                  : 448 kb/s
Каналы                                   : 6 channels
Расположение каналов                     : Front: L C R, Side: L R, LFE
Частота                                  : 48.0 kHz
Частота кадров                           : 31.250 FPS (1536 SPF)
Битовая глубина                          : 16 bits
Метод сжатия                             : Lossy
Размер потока                            : 368 MiB (8%)
Язык                                     : Japanese
Default                                  : No
Forced                                   : No

Text #1
Идентификатор                            : 4
Формат                                   : UTF-8
Идентификатор кодека                     : S_TEXT/UTF8
Идентификатор кодека/Информация          : UTF-8 Plain Text
Продолжительность                        : 4 min 34 s
Битрейт                                  : 50 b/s
ElementCount                             : 44
Размер потока                            : 1.70 KiB (0%)
Заголовок                                : RusForced
Язык                                     : Russian
Default                                  : Yes
Forced                                   : Yes

Text #2
Идентификатор                            : 5
Формат                                   : UTF-8
Идентификатор кодека                     : S_TEXT/UTF8
Идентификатор кодека/Информация          : UTF-8 Plain Text
Продолжительность                        : 1 h 52 min
Битрейт                                  : 67 b/s
ElementCount                             : 1367
Размер потока                            : 55.5 KiB (0%)
Язык                                     : Russian
Default                                  : No
Forced                                   : No

Menu
00:00:00.000                             : ja:1
00:05:48.473                             : ja:2
00:12:58.861                             : ja:3
00:16:44.170                             : ja:4
00:23:16.770                             : ja:5
00:32:22.941                             : ja:6
00:42:35.678                             : ja:7
00:48:53.848                             : ja:8
00:57:57.432                             : ja:9
01:10:14.419                             : ja:10
01:14:20.956                             : ja:11
01:23:31.840                             : ja:12
01:28:38.396                             : ja:13
01:34:28.037                             : ja:14
01:39:32.300                             : ja:15
01:41:58.195                             : ja:16
01:49:19.386                             : ja:17
01:54:35.869                             : ja:18




Скриншоты:
[+] Всего файлов в раздаче - 1:
SayonaranoasaniyakusokunohanaokazaroBDRip720p.mkv4.36 GB

Похожие раздачи по запросу - укрась:
2019-02-04 U Укрась прощальное утро цветами обещания / Sayonara no Asa ni Yakusoku no Hana o Kazarou / Maquia: When the Promised Flower Blooms (2018) HDRip от Scarabey | iTunes 1.39 GB ↑ 97 ↓ 1
2018-11-20 U Укрась прощальное утро цветами обещания / Sayonara no asa ni yakusoku no hana o kazaro (2018) BDRip 1080p | iTunes 7.75 GB ↑ 72 ↓ 23
2018-11-19 U Укрась прощальное утро цветами обещания / Sayonara no asa ni yakusoku no hana o kazaro (2018) BDRip | iTunes 1.46 GB ↑ 164 ↓ 7

Отзывы
woodpipl
Это просто шедевр! И по визуальной части и по сюжету! ШЕДЕВР!!!

Зарегистрируйтесь чтобы добавить комментарий.
Обратная связь
Copyleft ©