↑↓Torrent.by
Поиск
Логин: Регистрация
Пароль: Восстановить пароль
Загрузка...

Т-34 (2018) WEBRip 720p

Скачать t-34-2018-webrip-720p.torrent
U Магнитная ссылка Размер: 3.27 GB Раздают: 560 Качают: 245 Добавлен: 2019-02-04 21:17:40
Т-34 (2018) WEBRip 720p

Название: Т-34
Год выпуска: 2018
Жанр:  Драма, военный, приключения
Режиссёр: Алексей Сидоров

В ролях: Александр Петров, Виктор Добронравов, Ирина Старшенбаум, Винценц Кифер, Петр Скворцов, Семен Трескунов, Артем Быстров, Антон Богданов, Василий Уриевский, Василий Буткевич

О фильме:
В 1941-м году вчерашний курсант Ивушкин вступает в неравный бой против танкового аса Ягера. Мало кто верит, что у него есть шанс – в одиночку разбить дюжину немецких танков. И все же, удача любит смелых. Второй встречи Ивушкина и Ягера могло не быть, но судьба на войне умеет удивлять траекторией и каждому дарит свое. Одному – любовь, с которой ничего не страшно, другому – одержимость, которая гонит вперед, сжигая изнутри. 1944-й год, танковый полигон Ордруф. Пленный Ивушкин задумывает дерзкий побег. На легендарной «тридцатьчетверке» он бросает вызов Ягеру, его «пантерам» и своей судьбе.

Страна: Россия
Студия: АМЕДИА, Марс Медиа Энтертейнмент
Продолжительность: 02:19:08
Язык: Русский
Субтитры: Нет

Файл
Формат: Matroska
Качество: WEBRip-AVC
Видео: 1280x536 (2,40:1), 24.000 fps, MPEG-4 AVC, ~3110 Кbps, 0.189 bit/pixel
Аудио:  AC3, 2 ch, ~192 Кбит/с

***Релиз от: -=DoMiNo=-


[+] M/I
x264 info: frame I:1807  Avg QP:12.74  size: 59968
x264 info: frame P:51326 Avg QP:14.44  size: 31273
x264 info: frame B:147219 Avg QP:16.95  size: 10861
x264 info: consecutive B-frames:  3.5%  3.2% 14.7% 30.8% 29.3% 17.0%  0.8%  0.2%  0.1%  0.1%  0.0%  0.0%  0.2%

General
Unique ID                   : 183579313499955392258965404992678577865 (0x8A1C16F6D6BD677C53E6F76B7FC6C6C9)
Complete name               : T-34_(2018)_WEBRIP_720p_[-=DoMiNo=-].mkv
Format                      : Matroska
Format version              : Version 4
File size                   : 3.27 GiB
Duration                    : 2 h 19 min
Overall bit rate            : 3 369 kb/s
Movie name                  : Т-34
Deion                 : Во времена величайших испытаний человечества, когда от каждого действия зависят жизни любимых, два заклятых врага начнут свое противостояние. Оказавшись в плену, вчерашний курсант Ивушкин планирует дерзкий побег. Он собирает свой экипаж и бросает вызов немецким танковым ассам во главе с Ягером. Ради своей любви и Родины он готов идти до конца.
Attachments                 : poster.jpg
ACTORS                      : Alexander Petrov, Victor Dobronravov, Irina Starshenbaum, Vinzenz Kiefer, Petr Skvortsov, Semyon Treskunov, Artyom Bystrov, Michael Janibekyan, Anton Bogdanov, Sofya Sinitsyna, Yuliya Dzhulai, Darya Hramtsova, Vasiliy Uriyevskiy, Vasiliy Butkevich, Yaroslav Shtefan, Kirill Lopatkin, Polina Volkova, Wolfgang Cerny, Yuriy Borisov, Igor Khripunov, Paul Orlyanskiy
COUNTRY                     : Russia
DATE                        : 2018-12-27
DIRECTOR                    : Aleksey Sidorov
GENRE                       : военный, драма, приключения
ITUNEXTC                    : ru-movie|12+|200|
PRODUCER                    : Ruben Dishdishyan, Len Blavatnik, Anton Zlatopolsky, Nelly Yaralova, Yuliya Ivanova
PUBLISHER                   : AMedia, Mars Media Entertainment
RATING                      : 46
WRITER                      : Aleksey Sidorov

Video
ID                          : 1
Format                      : AVC
Format/Info                 : Advanced Video Codec
Format profile              : High@L4.1
Format settings             : CABAC / 12 Ref Frames
Format settings, CABAC      : Yes
Format settings, ReFrames   : 12 frames
Codec ID                    : V_MPEG4/ISO/AVC
Duration                    : 2 h 19 min
Bit rate                    : 3 110 kb/s
Width                       : 1 280 pixels
Height                      : 536 pixels
Display aspect ratio        : 2.40:1
Frame rate mode             : Constant
Frame rate                  : 24.000 FPS
Color space                 : YUV
Chroma subsampling          : 4:2:0
Bit depth                   : 8 bits
Scan type                   : Progressive
Bits/(Pixel*Frame)          : 0.189
Stream size                 : 3.02 GiB (92%)
Title                       : RIP_BY_-=DoMiNo=-
Writing library             : x264 core 157 r2935 545de2f
Encoding settings           : cabac=1 / ref=12 / deblock=1:-3:-3 / analyse=0x3:0x133 / me=umh / subme=11 / psy=1 / psy_rd=1.00:0.00 / mixed_ref=1 / me_range=32 / chroma_me=1 / trellis=2 / 8x8dct=1 / cqm=0 / deadzone=21,11 / fast_pskip=0 / chroma_qp_offset=-2 / threads=6 / lookahead_threads=1 / sliced_threads=0 / nr=0 / decimate=1 / interlaced=0 / bluray_compat=0 / constrained_intra=0 / bframes=12 / b_pyramid=2 / b_adapt=2 / b_bias=0 / direct=3 / weightb=1 / open_gop=0 / weightp=2 / keyint=240 / keyint_min=24 / scenecut=40 / intra_refresh=0 / rc_lookahead=120 / rc=crf / mbtree=0 / crf=18.0 / qcomp=0.80 / qpmin=0 / qpmax=69 / qpstep=4 / vbv_maxrate=50000 / vbv_bufsize=62500 / crf_max=0.0 / nal_hrd=none / filler=0 / ip_ratio=1.40 / pb_ratio=1.30 / aq=3:1.00
Default                     : Yes
Forced                      : No

Audio
ID                          : 2
Format                      : AC-3
Format/Info                 : Audio Coding 3
Commercial name             : Dolby Digital
Codec ID                    : A_AC3
Duration                    : 2 h 19 min
Bit rate mode               : Constant
Bit rate                    : 192 kb/s
Channel(s)                  : 2 channels
Channel layout              : L R
Sampling rate               : 44.1 kHz
Frame rate                  : 28.711 FPS (1536 SPF)
Bit depth                   : 16 bits
Compression mode            : Lossy
Stream size                 : 191 MiB (6%)
Title                       : RUS_[AC3-2ch]
Service kind                : Complete Main
Default                     : Yes
Forced                      : No

Menu
00:00:00.000                : :Глава 1
00:15:31.232                : :Глава 2
00:27:34.232                : :Глава 3
00:37:20.164                : :Глава 4
00:55:47.497                : :Глава 5
01:12:33.296                : :Глава 6
01:27:41.761                : :Глава 7
01:44:39.894                : :Глава 8
01:57:23.793                : :Глава 9
02:11:00.592                : :Глава 10



Скриншоты:
[+] Всего файлов в раздаче - 1:
T-34_(2018)_WEBRIP_720p_[-=DoMiNo=-].mkv3.27 GB

Показать еще раздачи по запросу webrip:
Сегодня U Белый парень Рик / White Boy Rick (2018) WEBRip | LakeFilms 1.35 GB ↑ 2 ↓ 98
Сегодня U ИП Пирогова [01-02 из 20] (2019) WEBRip 698.76 MB ↑ 78 ↓ 1
Сегодня U Последнее желание / The Final Wish (2018) WEBRip | L2 1.34 GB ↑ 70 ↓ 13
Сегодня U Прыжки во времени / Time Jumpers (2018) WEBRip 1080p | LakeFilms 1.33 GB ↑ 12 ↓ 98
Сегодня U Невский. Чужой среди чужих [03x01-10 из 20] (2018) WEBRip-AVC от Files-x 1К7.45 GB ↑ 50 ↓ 59
Сегодня U Comedy Баттл. Новый сезон [09х01-04] (2019) WEBRip 720p от Files-x 4.84 GB ↑ 76 ↓ 84
Сегодня U Человек, который убил Гитлера и затем снежного человека / The Man Who Killed Hitler and Then The Bigfoot (2018) WEBRip 720p | L2 2.19 GB ↑ 122 ↓ 29

Отзывы
Зарегистрируйтесь чтобы добавить комментарий.
Обратная связь
Copyleft ©