↑↓Torrent.by
Поиск
Логин: Регистрация
Пароль: Восстановить пароль
Загрузка...

Ханна / Hanna [01x01 из 08] (2019) WEBRip | OMSKBIRD

Скачать hanna-01x01-iz-08-2019-webrip-omskbird.torrent
U Магнитная ссылка Размер: 673.57 MB Раздают: 56 Качают: 10 Добавлен: 2019-02-05 06:53:11
Ханна / Hanna [01x01 из 08] (2019) WEBRip | OMSKBIRD

Название: Ханна
Оригинальное название: Hanna
Год выхода: 2019
Жанр: боевик, драма
Режиссер: Сара Адина, Андерс Энгстрем, Джон Джонс
В ролях: Эсме Крид-Майлс, Мирей Инос, Юэль Киннаман, Фелисьен Джаттнер, Халид Абдалла, Кемаал Дин-Эллис, Фалдут Шарма, Бенно Фюрман и др.

О фильме:
18-летняя Ханна всю жизнь прожила в лесах Северной Польши, где её с юных лет тренировал Эрик, прожженный наёмник и старый солдат. Изолированный от цивилизации, он обучил Ханну всем возможным методам выживания. Эрик хотел защитить её от остального мира, но сама Ханна очень хочет узнать тайну своего происхождения.

Страна: США
Продолжительность: ~ 00:48:00 серия
Перевод: Любительский (многоголосый закадровый) | OMSKBIRD

Файл
Кодек: Xvid
Качество: WEBRip
Видео: AVI, 720x400 (16:9), 23.976 fps, ~ 1800 kbps
Звук: Аудио rus: AC-3, 48 KHz, 2 ch, 192 kbps | OMSKBIRD records

Семпл

Присутствует реклама!
[+] Mediainfo:
General
Complete name               : H:Мои ДокументыВидеоРАЗДАЧИХАННАHanna S01 WEBRip (OMSKBIRD)Hanna S01E01 WEBRip (OMSKBIRD).avi
Format                      : AVI
Format/Info                 : Audio Video Interleave
File size                   : 674 MiB
Duration                    : 48 min 50 s
Overall bit rate            : 1 928 kb/s
Writing application         : VirtualDubMod 1.5.10.3 | www.virtualdub-fr.org || (build 2550/release)
Writing library             : VirtualDubMod build 2550/release

Video
ID                          : 0
Format                      : MPEG-4 Visual
Format profile              : Advanced Simple@L5
Format settings, BVOP       : 1
Format settings, QPel       : No
Format settings, GMC        : No warppoints
Format settings, Matrix     : Default (H.263)
Codec ID                    : XVID
Codec ID/Hint               : XviD
Duration                    : 48 min 50 s
Bit rate                    : 1 726 kb/s
Width                       : 720 pixels
Height                      : 400 pixels
Display aspect ratio        : 16:9
Frame rate                  : 23.976 (24000/1001) FPS
Color space                 : YUV
Chroma subsampling          : 4:2:0
Bit depth                   : 8 bits
Scan type                   : Progressive
Compression mode            : Lossy
Bits/(Pixel*Frame)          : 0.250
Stream size                 : 603 MiB (90%)
Writing library             : XviD 67

Audio
ID                          : 1
Format                      : AC-3
Format/Info                 : Audio Coding 3
Format settings, Endianness : Big
Codec ID                    : 2000
Duration                    : 48 min 50 s
Bit rate mode               : Constant
Bit rate                    : 192 kb/s
Channel(s)                  : 2 channels
Channel positions           : Front: L R
Sampling rate               : 48.0 kHz
Frame rate                  : 31.250 FPS (1536 SPF)
Bit depth                   : 16 bits
Compression mode            : Lossy
Stream size                 : 67.1 MiB (10%)
Alignment                   : Split accross interleaves
Interleave, duration        : 42  ms (1.00 video frame)
Interleave, preload duratio : 500  ms
Service kind                : Complete Main




Скриншоты:
[+] Всего файлов в раздаче - 1:
Hanna S01E01 WEBRip (OMSKBIRD).avi673.57 MB

Похожие раздачи по запросу - ханна:
2019-02-05 U Ханна / Hanna [01x01 из 08] (2019) WEB-DLRip | IdeaFilm 710.31 MB ↑ 78 ↓ 5
2019-02-05 U Ханна / Hanna [01x01 из 08] (2019) WEBRip 720p | OMSKBIRD 1.05 GB ↑ 34 ↓ 3
2017-06-26 U Ханна. Совершенное оружие / Hanna (2011) HDRip-AVC от ImperiaFilm | D 740.94 MB ↑ 66 ↓ 5

Отзывы
Зарегистрируйтесь чтобы добавить комментарий.
Обратная связь
Copyleft ©