↑↓Torrent.by
Поиск
Логин: Регистрация
Пароль: Восстановить пароль
Загрузка...

Черновик (2018) BDRip-HEVC 1080p от M@kSIMus | GER Transfer | Лицензия

Скачать chernovik-2018-bdrip-hevc-1080p-ot-m-ksimus-ger-transfer-licenziya.torrent
U Магнитная ссылка Размер: 4.89 GB Раздают: 46 Качают: 15 Добавлен: 2019-02-05 06:55:17
Черновик (2018) BDRip-HEVC 1080p от M@kSIMus | GER Transfer | Лицензия

Название: Черновик
Год выхода: 2018
Производство: Россия / «Новые люди»
Жанр:  Фантастика
Продолжительность: 01:55:35

Режиссер: Сергей Мокрицкий
В ролях: Никита Волков, Евгений Ткачук, Ольга Боровская, Юлия Пересильд, Северия Янушаускайте, Евгений Цыганов, Елена Яковлева, Ирина Демидкина, Андрей Мерзликин, Андрей Руденский

Описание: Молодой москвич Кирилл — талантливый дизайнер компьютерных игр. В один прекрасный день он оказывается напрочь стертым из памяти всех, кого он знал и любил. Кирилл узнает, что выбран для важной и таинственной миссии. Его предназначение — стать таможенником между параллельными мирами, коих во Вселенной десятки. Сможет ли Кирилл разгадать тайну этих таинственных миров и того, кто и зачем ими управляет? И действительно ли наша Земля — всего лишь воображаемый «черновик», параллельный мир, которого в Реальности не существует.

Качество: BDRip 1080p-HEVC
Видео: HEVC/x.265, 1920x804, ~5421 Kbps, 10 bit
Аудио 1: AC3, 6 ch, 640 Kbps | Русский (Оригинал)
Субтитры: Отсутствуют

Релиз от: M@kSIMus


[+] Mediainfo
Общее
Уникальный идентификатор                 : 281366675976882540063065534836557164084 (0xD3AD402B5CC6F4B8B2C85B99EA832E34)
Полное имя                               : Черновик (2018) [GER Transfer] BDRip 1080p [HEVC] 10 bit.mkv
Формат                                   : Matroska
Версия формата                           : Version 4 / Version 2
Размер файла                             : 4,89 Гбайт
Продолжительность                        : 1 ч. 55 м.
Общий поток                              : 6063 Кбит/сек
Название фильма                          : Rip_by_M@kSIMus
Дата кодирования                         : UTC 2018-09-19 17:07:52
Программа кодирования                    : mkvmerge v19.0.0 ('Brave Captain') 64-bit
Библиотека кодирования                   : libebml v1.3.5 + libmatroska v1.4.8
Обложка                                  : Yes
Attachments                              : cover.jpg

Видео
Идентификатор                            : 1
Формат                                   : HEVC
Формат/Информация                        : High Efficiency Video Coding
Профиль формата                          : Main 10@L4.1@High
Идентификатор кодека                     : V_MPEGH/ISO/HEVC
Продолжительность                        : 1 ч. 55 м.
Битрейт                                  : 5421 Кбит/сек
Ширина                                   : 1920 пикселей
Высота                                   : 804 пикселя
Соотношение сторон                       : 2,40:1
Режим частоты кадров                     : Постоянный
Частота кадров                           : 24,000 кадра/сек
Цветовое пространство                    : YUV
Субдискретизация насыщенности            : 4:2:0
Битовая глубина                          : 10 бит
Бит/(Пиксели*Кадры)                      : 0.146
Размер потока                            : 4,38 Гбайт (89%)
Библиотека кодирования                   : x265 2.8+19-bcdc610cf5f0:[Windows][GCC 7.3.0][64 bit] 10bit
Настройки программы                      : cpuid=1049583 / frame-threads=5 / numa-pools=4 / wpp / no-pmode / no-pme / no-psnr / no-ssim / log-level=3 / input-csp=1 / input-res=1920x804 / interlace=0 / total-frames=0 / level-idc=41 / high-tier=1 / uhd-bd=0 / ref=5 / allow-non-conformance / no-repeat-headers / annexb / no-aud / no-hrd / info / hash=0 / no-temporal-layers / open-gop / min-keyint=24 / keyint=240 / gop-lookahead=0 / bframes=8 / b-adapt=2 / b-pyramid / bframe-bias=0 / rc-lookahead=40 / lookahead-slices=5 / scenecut=40 / radl=0 / no-intra-refresh / ctu=64 / min-cu-size=8 / no-rect / no-amp / max-tu-size=32 / tu-inter-depth=1 / tu-intra-depth=1 / limit-tu=0 / rdoq-level=0 / dynamic-rd=0.00 / no-ssim-rd / signhide / no-tskip / nr-intra=0 / nr-inter=0 / no-constrained-intra / strong-intra-smoothing / max-merge=2 / limit-refs=3 / no-limit-modes / me=3 / subme=7 / merange=57 / temporal-mvp / weightp / no-weightb / no-analyze-src-pics / deblock=-3:-3 / no-sao / no-sao-non-deblock / rd=3 / no-early-skip / rskip / no-fast-intra / no-tskip-fast / no-cu-lossless / no-b-intra / no-splitrd-skip / rdpenalty=0 / psy-rd=2.00 / psy-rdoq=0.00 / no-rd-refine / no-lossless / cbqpoffs=0 / crqpoffs=0 / rc=crf / crf=18.0 / qcomp=0.65 / qpstep=4 / stats-write=0 / stats-read=0 / vbv-maxrate=50000 / vbv-bufsize=50000 / vbv-init=0.9 / crf-max=0.0 / crf-min=0.0 / ipratio=1.40 / pbratio=1.30 / aq-mode=1 / aq-strength=1.00 / cutree / zone-count=0 / no-strict-cbr / qg-size=32 / no-rc-grain / qpmax=69 / qpmin=0 / no-const-vbv / sar=1 / overscan=0 / videoformat=5 / range=0 / colorprim=1 / transfer=1 / colormatrix=1 / chromaloc=0 / display-window=0 / max-cll=0,0 / min-luma=0 / max-luma=1023 / log2-max-poc-lsb=8 / vui-timing-info / vui-hrd-info / slices=1 / no-opt-qp-pps / no-opt-ref-list-length-pps / no-multi-pass-opt-rps / scenecut-bias=0.05 / no-opt-cu-delta-qp / no-aq-motion / no-hdr / no-hdr-opt / no-dhdr10-opt / no-idr-recovery-sei / analysis-reuse-level=5 / scale-factor=0 / refine-intra=0 / refine-inter=0 / refine-mv=0 / no-limit-sao / ctu-info=0 / no-lowpass-dct / refine-mv-type=0 / copy-pic=1 / max-ausize-factor=1.0 / no-dynamic-refine / no-single-sei
Язык                                     : Russian
Default                                  : Да
Forced                                   : Нет
Цветовой диапазон                        : Limited
Основные цвета                           : BT.709
Характеристики трансфера                 : BT.709
Коэффициенты матрицы                     : BT.709

Аудио
Идентификатор                            : 2
Формат                                   : AC-3
Формат/Информация                        : Audio Coding 3
Идентификатор кодека                     : A_AC3
Продолжительность                        : 1 ч. 55 м.
Вид битрейта                             : Постоянный
Битрейт                                  : 640 Кбит/сек
Каналы                                   : 6 каналов
Расположение каналов                     : Front: L C R, Side: L R, LFE
Частота                                  : 48,0 КГц
Частота кадров                           : 31,250 кадров/сек (1536 SPF)
Битовая глубина                          : 16 бит
Метод сжатия                             : С потерями
Размер потока                            : 529 Мбайт (11%)
Язык                                     : Russian
ServiceKind                       : Complete Main
Default                                  : Да
Forced                                   : Нет

Меню
00:00:00.000                             : :Chapter 1
00:02:40.291                             : :Chapter 2
00:05:48.375                             : :Chapter 3
00:10:01.333                             : :Chapter 4
00:13:08.041                             : :Chapter 5
00:19:07.000                             : :Chapter 6
00:22:56.333                             : :Chapter 7
00:29:18.625                             : :Chapter 8
00:36:24.583                             : :Chapter 9
00:41:59.583                             : :Chapter 10
00:46:21.208                             : :Chapter 11
00:52:56.291                             : :Chapter 12
01:00:12.416                             : :Chapter 13
01:03:48.333                             : :Chapter 14
01:12:32.458                             : :Chapter 15
01:18:14.583                             : :Chapter 16
01:21:37.291                             : :Chapter 17
01:25:17.125                             : :Chapter 18
01:28:57.083                             : :Chapter 19
01:32:48.208                             : :Chapter 20
01:37:04.000                             : :Chapter 21
01:44:50.333                             : :Chapter 22
01:47:57.250                             : :Chapter 23
01:50:27.958                             : :Chapter 24
01:55:33.958                             : :Chapter 25



Скриншоты:
[+] Всего файлов в раздаче - 1:
Черновик (2018) [GER Transfer] BDRip 1080p [HEVC] 10 bit.mkv4.89 GB

Показать еще раздачи по запросу черновик:
2018-09-28 U Черновик (2018) BDRip-AVC от HELLYWOOD | GER Transfer | Лицензия 1.46 GB ↑ 176 ↓ 22
2018-09-22 U Черновик (2018) HDRip от Scarabey | Лицензия 1.45 GB ↑ 367 ↓ 26
2018-09-20 U Черновик (2018) BDRip-AVC от HELLYWOOD | GER Transfer | Лицензия 2.18 GB ↑ 165 ↓ 42
2018-09-19 U Черновик (2018) BDRemux 1080p | Лицензия 31.63 GB ↑ 45 ↓ 30
2018-09-19 U Черновик (2018) BDRip 720p | GER Transfer | Лицензия 6.36 GB ↑ 112 ↓ 41
2018-09-18 U Черновик (2018) BDRip-AVC от Files-x | Лицензия 1.46 GB ↑ 398 ↓ 167
2018-09-18 U Черновик (2018) BDRip 1080p от OlLanDGroup | GER Transfer | Лицензия 9.97 GB ↑ 118 ↓ 80

Отзывы
Зарегистрируйтесь чтобы добавить комментарий.
Обратная связь
Copyleft ©