↑↓Torrent.by
Поиск
Логин: Регистрация
Пароль: Восстановить пароль
Загрузка...

Ханна / Hanna [01x01 из 08] (2019) WEBRip 720p | OMSKBIRD

Скачать hanna-01x01-iz-08-2019-webrip-720p-omskbird.torrent
U Магнитная ссылка Размер: 1.05 GB Раздают: 34 Качают: 3 Добавлен: 2019-02-05 06:55:45
Ханна / Hanna [01x01 из 08] (2019) WEBRip 720p | OMSKBIRD

Название: Ханна
Оригинальное название: Hanna
Год выхода: 2019
Жанр: боевик, драма
Режиссер: Сара Адина, Андерс Энгстрем, Джон Джонс
В ролях: Эсме Крид-Майлс, Мирей Инос, Юэль Киннаман, Фелисьен Джаттнер, Халид Абдалла, Кемаал Дин-Эллис, Фалдут Шарма, Бенно Фюрман и др.

О фильме:
18-летняя Ханна всю жизнь прожила в лесах Северной Польши, где её с юных лет тренировал Эрик, прожженный наёмник и старый солдат. Изолированный от цивилизации, он обучил Ханну всем возможным методам выживания. Эрик хотел защитить её от остального мира, но сама Ханна очень хочет узнать тайну своего происхождения.

Страна: США
Продолжительность: ~ 00:48:00 серия
Перевод: Любительский (многоголосый закадровый) | OMSKBIRD

Файл
Кодек: MPEG-4 AVC
Качество: WEBRip 720p
Видео: AVC, 1280x720 (16:9), 23.976 fps, ~ 3000 kbps
Звук: Аудио rus: AC-3, 48 KHz, 2 ch, 192 kbps | OMSKBIRD records

Семпл

Присутствует реклама!
[+] Mediainfo:
General
Unique ID                   : 239300023424451960094036988055903416758 (0xB407821191800B2DB6AB1FA1CEC631B6)
Complete name               : H:Мои ДокументыВидеоРАЗДАЧИХАННАHanna S01 WEBRip 720p (OMSKBIRD)Hanna S01E01 WEBRip 720p (OMSKBIRD).mkv
Format                      : Matroska
Format version              : Version 2
File size                   : 1.05 GiB
Duration                    : 48 min 50 s
Overall bit rate            : 3 088 kb/s
Encoded date                : UTC 2019-02-04 12:44:28
Writing application         : mkvmerge v4.0.0 ('The Stars were mine') сборка от Jun  6 2010 16:18:42
Writing library             : libebml v1.0.0 + libmatroska v1.0.0

Video
ID                          : 1
Format                      : AVC
Format/Info                 : Advanced Video Codec
Format profile              : Main@L3.2
Format settings, CABAC      : Yes
Format settings, RefFrames  : 3 frames
Codec ID                    : V_MPEG4/ISO/AVC
Duration                    : 48 min 50 s
Bit rate                    : 2 835 kb/s
Width                       : 1 280 pixels
Height                      : 720 pixels
Display aspect ratio        : 16:9
Frame rate mode             : Constant
Frame rate                  : 23.976 (24000/1001) FPS
Standard                    : PAL
Color space                 : YUV
Chroma subsampling          : 4:2:0
Bit depth                   : 8 bits
Scan type                   : Progressive
Bits/(Pixel*Frame)          : 0.128
Stream size                 : 991 MiB (92%)
Language                    : English
Default                     : Yes
Forced                      : No
Color range                 : Limited
Color primaries             : BT.709
Transfer characteristics    : BT.709
Matrix coefficients         : BT.709

Audio
ID                          : 2
Format                      : AC-3
Format/Info                 : Audio Coding 3
Format settings, Endianness : Big
Codec ID                    : A_AC3
Duration                    : 48 min 50 s
Bit rate mode               : Constant
Bit rate                    : 192 kb/s
Channel(s)                  : 2 channels
Channel positions           : Front: L R
Sampling rate               : 48.0 kHz
Frame rate                  : 31.250 FPS (1536 SPF)
Bit depth                   : 16 bits
Compression mode            : Lossy
Stream size                 : 67.1 MiB (6%)
Service kind                : Complete Main
Default                     : Yes
Forced                      : No




Скриншоты:
[+] Всего файлов в раздаче - 1:
Hanna S01E01 WEBRip 720p (OMSKBIRD).mkv1.05 GB

Похожие раздачи по запросу - ханна:
2019-04-02 U Ханна / Hanna [S01] (2019) WEB-DLRip 720p | RG.Paravozik 9.12 GB ↑ 284 ↓ 380
2019-02-05 U Ханна / Hanna [01x01 из 08] (2019) WEB-DLRip | IdeaFilm 710.31 MB ↑ 78 ↓ 5
2019-02-05 U Ханна / Hanna [01x01 из 08] (2019) WEBRip | OMSKBIRD 673.57 MB ↑ 56 ↓ 10
2017-06-26 U Ханна. Совершенное оружие / Hanna (2011) HDRip-AVC от ImperiaFilm | D 740.94 MB ↑ 65 ↓ 6

Отзывы
Зарегистрируйтесь чтобы добавить комментарий.
Обратная связь
Copyleft ©