↑↓Torrent.by
Поиск
Логин: Регистрация
Пароль: Восстановить пароль
Загрузка...

Ланцет [01-08 из 16] (2018) WEBRip от GeneralFilm

Скачать lancet-01-08-iz-16-2018-webrip-ot-generalfilm.torrent
U Магнитная ссылка Размер: 4.35 GB Раздают: 41 Качают: 141 Добавлен: 2019-02-05 11:24:34
Ланцет [01-08 из 16] (2018) WEBRip от GeneralFilm

Оригинальное название: Ланцет
Год выпуска: 2018
Жанр:  Детектив, драма, мелодрама
Выпущено: Россия, «Марс Медиа», «Амедиа Продакшн»
Режиссер: Елена Николаева
В ролях: Павел Трубинер, Борис Каморзин, Евгения Симонова, Полина Агуреева, Иван Жидков, Софья Синицына, Григорий Зельцер, Иван Агапов, Дмитрий Калязин, Артемий Шаффер, Александр Сергеев (IV), Наталья Высочанская, Антон Косточкин, Сергей Долготович, Олег Чудницов, Александр Пугачёв (II), Алексей Кирсанов, Александр Касаткин (II), Анастасия Дубровина, Алла Криницына, Владимир Чуприков, Виталия Корниенко, Алексей Кирилин, Мария Бортник, Александр Хованский (II), Иван Рудаков, Надежда Иванко, Екатерина Гудина, Анна Галлямова, Эрик Яралов, Ксения Ильясова, Александр Обласов, Михаил Хмуров

О фильме: Кардиохирург Илья Ладынин по прозвищу "Ланцет", полученному еще в мединституте за страсть к хирургии, находится на грани отчаяния: жена скоропостижно скончалась, сын винит его в смерти матери и переезжает к бабушке. Только работа способна «вылечить», но сбывается самый страшный кошмар любого хирурга — у Ильи начинается тремор рук. Ладынин теряет пациента и больше не может оперировать. Он уже готов уйти из медицины, но получает неожиданное предложение – возглавить подразделение больницы, занимающееся внутренними расследованиями. Илья решает, что новое назначение поможет разобраться в том, что пошло не так в лечении его жены.

Качество: WEBRip
Видео: XviD build 73, 720x400 (16:9), 25.000 fps, ~ 1320 Kbps (~ 0.183 bit/pixel)
Аудио: 48.0 kHz, AC3, 2/0 ch, 192 kbps
Продолжительность: 8 x ~ 00:50:00
Перевод: Не требуется
Cубтитры: нет

Релиз:


[+] MediaInfo

General
Complete name               : D:RazdachiLancet.2018.WEBRip.GeneralFilmLancet.e01.avi
Format                      : AVI
Format/Info                 : Audio Video Interleave
File size                   : 558 MiB
Duration                    : 51 min 3 s
Overall bit rate            : 1 527 kb/s
Writing application         : VirtualDubMod 1.5.10.3 | www.virtualdub-fr.org || (build 2550/release)
Writing library             : VirtualDubMod build 2550/release

Video
ID                          : 0
Format                      : MPEG-4 Visual
Format profile              : Advanced Simple@L5
Format settings             : BVOP1 / Custom Matrix
Format settings, BVOP       : 1
Format settings, QPel       : No
Format settings, GMC        : No warppoints
Format settings, Matrix     : Custom
Codec ID                    : XVID
Codec ID/Hint               : XviD
Duration                    : 51 min 3 s
Bit rate                    : 1 325 kb/s
Width                       : 720 pixels
Height                      : 400 pixels
Display aspect ratio        : 16:9
Frame rate                  : 25.000 FPS
Color space                 : YUV
Chroma subsampling          : 4:2:0
Bit depth                   : 8 bits
Scan type                   : Progressive
Compression mode            : Lossy
Bits/(Pixel*Frame)          : 0.184
Stream size                 : 484 MiB (87%)
Writing library             : XviD 73

Audio
ID                          : 1
Format                      : AC-3
Format/Info                 : Audio Coding 3
Commercial name             : Dolby Digital
Codec ID                    : 2000
Duration                    : 51 min 3 s
Bit rate mode               : Constant
Bit rate                    : 192 kb/s
Channel(s)                  : 2 channels
Channel layout              : L R
Sampling rate               : 48.0 kHz
Frame rate                  : 31.250 FPS (1536 SPF)
Bit depth                   : 16 bits
Compression mode            : Lossy
Stream size                 : 70.1 MiB (13%)
Alignment                   : Split accross interleaves
Interleave, duration        : 40  ms (1.00 video frame)
Interleave, preload duratio : 500  ms
Service kind                : Complete Main



Скриншоты:
[+] Всего файлов в раздаче - 8:
Lancet.e01.avi557.52 MB
Lancet.e02.avi557.21 MB
Lancet.e03.avi557.25 MB
Lancet.e04.avi557.21 MB
Lancet.e05.avi557.70 MB
Lancet.e06.avi557.44 MB
Lancet.e07.avi557.37 MB
Lancet.e08.avi557.19 MB

Показать еще раздачи по запросу ланцет:
2019-02-10 U Ланцет [01-16 из 16] (2018) WEBRip от GeneralFilm 8.71 GB ↑ 117 ↓ 257
2019-02-09 U Ланцет [01-16 из 16] (2018) WEBRip от Files-x 10.30 GB ↑ 193 ↓ 207
2019-02-09 U Ланцет [01-16 из 16] (2018) HDTV 1080i от GeneralFilm 41.18 GB ↑ 64 ↓ 182
2019-02-09 U Ланцет [01-16 из 16] (2018) HDTVRip 720p от GeneralFilm 20.91 GB ↑ 82 ↓ 132
2019-02-09 U Ланцет [01-16 из 16] (2018) HDTVRip-AVC от Files-х 12.42 GB ↑ 27 ↓ 52
2019-02-09 U Ланцет [01-16 из 16] (2018) HDTVRip от GeneralFilm 11.22 GB ↑ 81 ↓ 168
2019-02-08 U Ланцет [01-16 из 16] (2019) SATRip-AVC 10.67 GB ↑ 23 ↓ 31

Отзывы
Зарегистрируйтесь чтобы добавить комментарий.
Обратная связь
Copyleft ©