↑↓Torrent.by
Поиск
Логин: Регистрация
Пароль: Восстановить пароль
Загрузка...

Три богатыря и Наследница престола (2018) WEB-DL 1080p | iTunes

Скачать tri-bogatyrya-i-naslednica-prestola-2018-web-dl-1080p-itunes.torrent
U Магнитная ссылка Размер: 3.12 GB Раздают: 729 Качают: 206 Добавлен: 2019-02-06 05:05:19
Три богатыря и Наследница престола (2018) WEB-DL 1080p | iTunes

Название: Три богатыря и Наследница престола
Жанр:  Мультфильм, Приключения, Семейный
Год выхода: 2018
Режиссер: Константин Бронзит

Продюсер: Сергей Сельянов, Александр Боярский
Персонажи: Михаил Черняк, Сергей Маковецкий, Дмитрий Быковский-Ромашов, Валерий Соловьев, Олег Куликович, Дмитрий Высоцкий, Александр Боярский, Константин Бронзит

Описание:
Князь Киевский решил назначить наследника престола, только вот незадача — кто это может быть? Родственник, друг семьи или может быть, заморская принцесса? Недолго думая, Князь-батюшка выбирает почти принцессу, а главное родственницу — племянницу Забаву. Нынче она вместе со своим мужем Елисеем (помните верного ученика Добрыни Никитича?) получает образование в далеком Царьграде, где правит коварный Василевс. Чтобы вернуть наследницу на родные просторы за тридевять земель в спешном порядке отправляются три богатыря и, конечно же, главный придворный конь Юлий.

Возраст: 6+ (зрителям, достигшим 6 лет)
Дата мировой премьеры: 4 января 2019
Дата российской премьеры: 27 декабря 2018, «Наше Кино»
Производство: Россия, Кинокомпания CTB, Анимационная студия Мельница
Продолжительность: 01:21:10
Перевод: Не требуется (русский) iTunes
Субтитры: Отсутствуют

Файл
Формат: Matroska
Качество видео: WEB-DL 1080p
Видео: AVC/H.264, 1920x1080, 5017 kbps
Аудио: АС3, 6 ch, 48 kHz, 384 Kbps | Русский


[+] M/I
Общее
Уникальный идентификатор                 : 241154080718112136417162938651459596599 (0xB56C96269BC646EB88BDF9AA27523137)
Полное имя                               : D:Три.богатыря.и.Наследница.престола.2018.WEB-DL.[1080p].NNMClub.mkv
Формат                                   : Matroska
Версия формата                           : Version 4
Размер файла                             : 3,12 Гбайт
Продолжительность                        : 1 ч. 21 м.
Общий поток                              : 5510 Кбит/сек
Дата кодирования                         : UTC 2019-02-05 10:57:14
Программа кодирования                    : mkvmerge v6.9.1 ('Blue Panther') 32bit built on Apr 18 2014 18:15:44
Библиотека кодирования                   : libebml v1.3.0 + libmatroska v1.4.1

Видео
Идентификатор                            : 1
Формат                                   : AVC
Формат/Информация                        : Advanced Video Codec
Профиль формата                          : High@L4
Настройки формата                        : CABAC / 4 Ref Frames
Параметр CABAC формата                   : Да
Параметр RefFrames формата               : 4 кадра
Идентификатор кодека                     : V_MPEG4/ISO/AVC
Продолжительность                        : 1 ч. 21 м.
Битрейт                                  : 5017 Кбит/сек
Ширина                                   : 1920 пикселей
Высота                                   : 1080 пикселей
Соотношение сторон                       : 16:9
Режим частоты кадров                     : Постоянный
Частота кадров                           : 25,000 кадров/сек
Цветовое пространство                    : YUV
Субдискретизация насыщенности            : 4:2:0
Битовая глубина                          : 8 бит
Тип развёртки                            : Прогрессивная
Бит/(Пиксели*Кадры)                      : 0.097
Размер потока                            : 2,84 Гбайт (91%)
Язык                                     : English
Default                                  : Да
Forced                                   : Нет
Цветовой диапазон                        : Limited
Основные цвета                           : BT.709
Характеристики трансфера                 : BT.709
Коэффициенты матрицы                     : BT.709

Аудио
Идентификатор                            : 2
Формат                                   : AC-3
Формат/Информация                        : Audio Coding 3
Коммерческое название                    : Dolby Digital
Идентификатор кодека                     : A_AC3
Продолжительность                        : 1 ч. 21 м.
Вид битрейта                             : Постоянный
Битрейт                                  : 384 Кбит/сек
Каналы                                   : 6 каналов
Channel layout                           : L R C LFE Ls Rs
Частота                                  : 48,0 КГц
Частота кадров                           : 31,250 кадров/сек (1536 SPF)
Битовая глубина                          : 16 бит
Метод сжатия                             : С потерями
Размер потока                            : 223 Мбайт (7%)
Заголовок                                : iTunes
Язык                                     : Russian
ServiceKind                     : Complete Main
Default                                  : Да
Forced                                   : Нет

Меню
00:00:00.000                             : en:Глава 1
00:06:40.600                             : en:Глава 2
00:13:04.080                             : en:Глава 3
00:19:25.120                             : en:Глава 4
00:27:00.920                             : en:Глава 5
00:33:24.640                             : en:Глава 6
00:39:32.680                             : en:Глава 7
00:46:08.000                             : en:Глава 8
00:53:50.880                             : en:Глава 9
01:02:06.080                             : en:Глава 10
01:07:50.520                             : en:Глава 11
01:12:03.960                             : en:Глава 12



[+] Картинка понравилась



Скриншоты:
[+] Всего файлов в раздаче - 1:
Три.богатыря.и.Наследница.престола.2018.WEB-DL.[1080p].NNMClub.mkv3.12 GB

Показать еще раздачи по запросу богатыря:
2019-02-09 U Три богатыря и наследница престола (2018) WEB-DLRip от Scarabey | iTunes 1.36 GB ↑ 108 ↓ 16
2019-02-07 U Три богатыря и Наследница престола (2018) WEB-DLRip-AVC | iTunes 742.04 MB ↑ 97 ↓ 39
2019-02-06 U Три богатыря и Наследница престола (2018) WEB-DLRip от Generalfilm | КПК | iTunes 308.03 MB ↑ 65 ↓ 16
2019-02-06 U Три богатыря и Наследница престола (2018) WEB-DLRip-AVC от Generalfilm | iTunes 1.05 GB ↑ 163 ↓ 35
2019-02-06 U Три богатыря и Наследница престола (2018) WEB-DL 720p | iTunes 2.57 GB ↑ 450 ↓ 194
2019-02-06 U Три богатыря и Наследница престола (2018) WEB-DLRip-AVC от ExKinoRay | iTunes 1.17 GB ↑ 63 ↓ 29
2019-02-06 U Три богатыря и Наследница престола (2018) WEB-DLRip-AVC от OlLanDGroup | iTunes 1.55 GB ↑ 71 ↓ 40

Отзывы
KennethLor
Неплохо. Лучше, чем предыдущая часть.
Титры, как всегда, проамериканские.  Картинка понравилась

Зарегистрируйтесь чтобы добавить комментарий.
Обратная связь
Copyleft ©