↑↓Torrent.by
Поиск
Логин: Регистрация
Пароль: Восстановить пароль
Загрузка...

Три богатыря и Наследница престола (2018) WEB-DLRip-AVC от OlLanDGroup | iTunes

Скачать tri-bogatyrya-i-naslednica-prestola-2018-web-dlrip-avc-ot-ollandgroup-itunes.torrent
U Магнитная ссылка Размер: 1.55 GB Раздают: 69 Качают: 40 Добавлен: 2019-02-06 05:06:36
Три богатыря и Наследница престола (2018) WEB-DLRip-AVC от OlLanDGroup | iTunes

Три богатыря и Наследница престола
«Забавы ради»

Год выпуска: 2018
Страна: Россия
Производство: Мельница
Жанр:  Мультфильм, приключения, семейный, детский, полнометражный

Режиссёр: Константин Бронзит
В ролях: Михаил Черняк, Сергей Маковецкий, Дмитрий Быковский-Ромашов, Валерий Соловьёв, Олег Куликович, Дмитрий Высоцкий, Александр Боярский, Екатерина Гороховская, Юрий Тарасов, Юрий Кузнецов

Перевод: Оригинал | [iTunes]
Субтитры: Нет
Реклама: Отсутствует

Описание: Князь Киевский решил назначить наследника престола, только вот незадача - кто это может быть? Родственник, друг семьи или может быть, заморская принцесса? Недолго думая, Князь-батюшка выбирает почти принцессу, а главное родственницу - племянницу Забаву. Нынче она вместе со своим мужем Елисеем (помните верного ученика Добрыни Никитича?) получает образование в далеком Царьграде, где правит коварный Василевс. Чтобы вернуть наследницу на родные просторы за тридевять земель в спешном порядке отправляются три богатыря и, конечно же, главный придворный конь Юлий.

Качество: WEB-DLRip-AVC | |
Продолжительность: 01:21:10

Формат: MKV
Видео кодек: MPEG-4 AVC
Аудио кодек: AC3
Видео: 1024x576 (16:9), 25,000 fps, x264 ~2 349 kbps avg, 0.159 bit/pixel
Аудио #1: 48 kHz, AC3 Dolby Digital, 3/2 (L,C,R,l,r) + LFE ch, ~384.00 kbps avg | RUS (iTunes)

Дата премьеры (мир): 4 января 2019
Дата премьеры (РФ): 27 декабря 2018, «Наше Кино»
Цифровой релиз:

Релиз: Rip by:


[+] MediaInfo

Общее
Уникальный идентификатор                 : 299664407550015178773246225362131572646 (0xE17143FCD6B9AFCDEEFBF28967BF57A6)
Полное имя                               : F:OlLanDGroup3.Bogatyrja.I.Naslednica.2018.WEB-DLRip(AVC).OlLanDGroup.mkv
Формат                                   : Matroska
Версия формата                           : Version 4 / Version 2
Размер файла                             : 1,55 Гбайт
Продолжительность                        : 1 ч. 21 м.
Общий поток                              : 2733 Кбит/сек
Название фильма                          : 3.Bogatyrja.I.Naslednica.2018   #TorpedoUK#
Дата кодирования                         : UTC 2019-02-06 00:18:03
Программа кодирования                    : mkvmerge v29.0.0 ('Like It Or Not') 64-bit
Библиотека кодирования                   : libebml v1.3.6 + libmatroska v1.4.9

Видео
Идентификатор                            : 1
Формат                                   : AVC
Формат/Информация                        : Advanced Video Codec
Профиль формата                          : High@L4.1
Параметр CABAC формата                   : Да
Параметр ReFrames формата                : 10 кадров
Идентификатор кодека                     : V_MPEG4/ISO/AVC
Продолжительность                        : 1 ч. 21 м.
Битрейт                                  : 2349 Кбит/сек
Ширина                                   : 1024 пикселя
Высота                                   : 576 пикселей
Соотношение сторон                       : 16:9
Режим частоты кадров                     : Постоянный
Частота кадров                           : 25,000 кадров/сек
Цветовое пространство                    : YUV
Субдискретизация насыщенности            : 4:2:0
Битовая глубина                          : 8 бит
Тип развёртки                            : Прогрессивная
Бит/(Пиксели*Кадры)                      : 0.159
Размер потока                            : 1,33 Гбайт (86%)
Библиотека кодирования                   : x264 core 146 r2538 121396c
Настройки программы                      : cabac=1 / ref=10 / deblock=1:-3:-3 / analyse=0x3:0x113 / me=umh / subme=10 / psy=1 / psy_rd=1.00:0.03 / mixed_ref=1 / me_range=48 / chroma_me=1 / trellis=2 / 8x8dct=1 / cqm=0 / deadzone=21,11 / fast_pskip=1 / chroma_qp_offset=-3 / threads=6 / lookahead_threads=1 / sliced_threads=0 / nr=0 / decimate=1 / interlaced=0 / bluray_compat=0 / constrained_intra=0 / bframes=11 / b_pyramid=2 / b_adapt=2 / b_bias=0 / direct=3 / weightb=1 / open_gop=0 / weightp=2 / keyint=250 / keyint_min=25 / scenecut=40 / intra_refresh=0 / rc_lookahead=40 / rc=2pass / mbtree=0 / bitrate=2349 / ratetol=1.0 / qcomp=0.60 / qpmin=0 / qpmax=69 / qpstep=4 / cplxblur=20.0 / qblur=0.5 / vbv_maxrate=50000 / vbv_bufsize=62500 / nal_hrd=none / filler=0 / ip_ratio=1.40 / pb_ratio=1.30 / aq=1:1.00
Язык                                     : English
Default                                  : Да
Forced                                   : Нет

Аудио
Идентификатор                            : 2
Формат                                   : AC-3
Формат/Информация                        : Audio Coding 3
Расширение режима                        : CM (complete main)
Параметр Endianness формата              : Big
Идентификатор кодека                     : A_AC3
Продолжительность                        : 1 ч. 21 м.
Вид битрейта                             : Постоянный
Битрейт                                  : 384 Кбит/сек
Каналы                                   : 6 каналов
Расположение каналов                     : Front: L C R, Side: L R, LFE
Частота                                  : 48,0 КГц
Частота кадров                           : 31,250 кадров/сек (1536 spf)
Битовая глубина                          : 16 бит
Метод сжатия                             : С потерями
Размер потока                            : 223 Мбайт (14%)
Заголовок                                : [ORIGINAL] DD 5.1 @ 384 kbps (iTunes)
Язык                                     : Russian
Default                                  : Да
Forced                                   : Нет

Меню
00:00:00.000                             : en:Глава 1
00:06:40.600                             : en:Глава 2
00:13:04.080                             : en:Глава 3
00:19:25.120                             : en:Глава 4
00:27:00.920                             : en:Глава 5
00:33:24.640                             : en:Глава 6
00:39:32.680                             : en:Глава 7
00:46:08.000                             : en:Глава 8
00:53:50.880                             : en:Глава 9
01:02:06.080                             : en:Глава 10
01:07:50.520                             : en:Глава 11
01:12:03.960                             : en:Глава 12



Скриншоты:
[+] Всего файлов в раздаче - 1:
3.Bogatyrja.I.Naslednica.2018.WEB-DLRip(AVC).OlLanDGroup.mkv1.55 GB

Показать еще раздачи по запросу богатыря:
2019-02-09 U Три богатыря и наследница престола (2018) WEB-DLRip от Scarabey | iTunes 1.36 GB ↑ 100 ↓ 16
2019-02-07 U Три богатыря и Наследница престола (2018) WEB-DLRip-AVC | iTunes 742.04 MB ↑ 82 ↓ 38
2019-02-06 U Три богатыря и Наследница престола (2018) WEB-DLRip от Generalfilm | КПК | iTunes 308.03 MB ↑ 65 ↓ 16
2019-02-06 U Три богатыря и Наследница престола (2018) WEB-DLRip-AVC от Generalfilm | iTunes 1.05 GB ↑ 153 ↓ 35
2019-02-06 U Три богатыря и Наследница престола (2018) WEB-DL 720p | iTunes 2.57 GB ↑ 443 ↓ 190
2019-02-06 U Три богатыря и Наследница престола (2018) WEB-DLRip-AVC от ExKinoRay | iTunes 1.17 GB ↑ 54 ↓ 29
2019-02-06 U Три богатыря и Наследница престола (2018) WEB-DLRip от MegaPeer | iTunes 1.46 GB ↑ 633 ↓ 127

Отзывы
Зарегистрируйтесь чтобы добавить комментарий.
Обратная связь
Copyleft ©