↑↓Torrent.by
Поиск
Логин: Регистрация
Пароль: Восстановить пароль
Загрузка...

Каратель / The Punisher [S02] (2019) WEBRip 1080p | NewStudio

Скачать karatel-the-punisher-s02-2019-webrip-1080p-newstudio.torrent
U Магнитная ссылка Размер: 23.53 GB Раздают: 63 Качают: 80 Добавлен: 2019-02-06 05:06:45
Каратель / The Punisher [S02] (2019) WEBRip 1080p | NewStudio

Информация о сериале
Название: Каратель
Оригинальное название: The Punisher
Год выпуска: 2019 (2 сезон)
Жанр:  фантастика, боевик, триллер, драма, криминал, приключения
Режиссер: Энди Годдард , Марк Йобст , Кари Скогланд
В ролях: Бен Барнс, Джон Бернтал, Джейсон Р. Мур, Эбон Мосс-Бакрак, Майкл Натансон, Джейми Рэй Ньюман, Эмбер Роуз Рева, Пол Шульц, Даниэль Уэббер, Дебора Энн Уолл, Коби Фрумер, Рипли Собо

О фильме:
Бывший морпех Фрэнк Касл на время покончил с ролью линчевателя и отправился колесить по стране. Но мирная жизнь продлилась недолго — он ввязывается в дело, связанное с попыткой убийства девчонки-подростка. Втянутый в тайну, окружающую его новую знакомую и тех, кто на неё охотится, Касл снова подставляет себя под пули. Вступив в противостояние с новыми и старыми врагами, главный герой должен решить раз и навсегда, готов ли он окончательно перевоплотиться в Карателя.

Страна: США
Студия: Marvel Television
Продолжительность: ~ 00:51:00 серия
Перевод: Профессиональный (многоголосый, закадровый) [NewStudio]

Файл
Качество: WEBRip 1080p
Формат: Matroska
Видео: 1920x1080 at 23.976 fps, MPEG-4 AVC, ~4200 kbps avg
Аудио#1: Russian: 48 kHz, AC3, 6 ch, ~384 kbps avg |Многоголосый закадровый, NewStudio|
Аудио#2: English: 48 kHz, E-AC3, 6 ch, ~448 kbps avg
Субтитры: Русские (Forced, Full), английские (Full)

Примечание: Релиз без рекламы от Wanterlude
Внимание! Присутствует ненормативная лексика!


[+] Релиз
Без рекламы благодаря:
▪ Wanterlude: 1-13 серии
Озвучка:
▪ Профессиональная многоголосая (NewStudio)
Субтитры:
▪ Русские (Forced, Full)
▪ Английские (Full)

Дополнительная информация:
▪ Forced субтитры от NewStudio, Full от PhysKids

» Сборкой и очисткой от рекламы занимался: Wanterlude

▪ ▪ Если взяли дорожку или сам релиз, будьте добры указать автора :)



[+] MediaInfo
General
Unique ID                                : 248008464793395664848600531306648329166 (0xBA94B160A1590634A3FD0814A6865BCE)
Complete name                            : D:Релизы ТрекерMarvels.The.Punisher.S02.1080p.NewStudio.(Wanterlude)Marvels.The.Punisher.S02E01.NewStudio.(Wanterlude).mkv
Format                                   : Matroska
Format version                           : Version 4
File size                                : 1.56 GiB
Duration                                 : 53 min 9 s
Overall bit rate mode                    : Variable
Overall bit rate                         : 4 207 kb/s
Movie name                               : The Punisher | Ep 01 | NewStudio
Encoded date                             : UTC 2019-01-24 16:20:42
Writing application                      : mkvmerge v30.1.0 ('Forever And More') 64-bit
Writing library                          : libebml v1.3.6 + libmatroska v1.4.9

Video
ID                                       : 1
Format                                   : AVC
Format/Info                              : Advanced Video Codec
Format profile                           : Main@L4
Format settings                          : CABAC / 3 Ref Frames
Format settings, CABAC                   : Yes
Format settings, RefFrames               : 3 frames
Codec ID                                 : V_MPEG4/ISO/AVC
Duration                                 : 53 min 9 s
Bit rate mode                            : Variable
Bit rate                                 : 3 480 kb/s
Maximum bit rate                         : 5 220 kb/s
Width                                    : 1 920 pixels
Height                                   : 1 080 pixels
Display aspect ratio                     : 16:9
Frame rate mode                          : Constant
Frame rate                               : 23.976 (24000/1001) FPS
Color space                              : YUV
Chroma subsampling                       : 4:2:0
Bit depth                                : 8 bits
Scan type                                : Progressive
Bits/(Pixel*Frame)                       : 0.070
Stream size                              : 1.25 GiB (80%)
Title                                    : The Punisher | Ep 01 | NewStudio
Writing library                          : x264 core 148 r2715 7e75228
Encoding settings                        : cabac=1 / ref=3 / deblock=1:0:0 / analyse=0x1:0x111 / me=umh / subme=10 / psy=1 / psy_rd=1.00:0.00 / mixed_ref=1 / me_range=24 / chroma_me=1 / trellis=2 / 8x8dct=0 / cqm=0 / deadzone=21,11 / fast_pskip=1 / chroma_qp_offset=-2 / threads=6 / lookahead_threads=1 / sliced_threads=0 / nr=0 / decimate=1 / interlaced=0 / bluray_compat=0 / stitchable=1 / constrained_intra=0 / bframes=2 / b_pyramid=0 / b_adapt=2 / b_bias=0 / direct=3 / weightb=1 / open_gop=0 / weightp=2 / keyint=48 / keyint_min=25 / scenecut=0 / intra_refresh=0 / rc_lookahead=48 / rc=2pass / mbtree=1 / bitrate=3480 / ratetol=1.0 / qcomp=0.50 / qpmin=6 / qpmax=51 / qpstep=4 / cplxblur=20.0 / qblur=0.5 / vbv_maxrate=5220 / vbv_bufsize=6960 / nal_hrd=vbr / filler=0 / ip_ratio=1.40 / aq=1:1.00
Language                                 : English
Default                                  : Yes
Forced                                   : No

Audio #1
ID                                       : 2
Format                                   : AC-3
Format/Info                              : Audio Coding 3
Commercial name                          : Dolby Digital
Codec ID                                 : A_AC3
Duration                                 : 53 min 9 s
Bit rate mode                            : Constant
Bit rate                                 : 384 kb/s
Channel(s)                               : 6 channels
Channel layout                           : L R C LFE Ls Rs
Sampling rate                            : 48.0 kHz
Frame rate                               : 31.250 FPS (1536 SPF)
Bit depth                                : 16 bits
Compression mode                         : Lossy
Stream size                              : 146 MiB (9%)
Title                                    : NewStudio | Wanterlude
Language                                 : Russian
Service kind                             : Complete Main
Default                                  : Yes
Forced                                   : Yes

Audio #2
ID                                       : 3
Format                                   : E-AC-3 JOC
Format/Info                              : Enhanced AC-3 with Joint Object Coding
Commercial name                          : Dolby Digital Plus with Dolby Atmos
Codec ID                                 : A_EAC3
Duration                                 : 53 min 9 s
Bit rate mode                            : Constant
Bit rate                                 : 448 kb/s
Channel(s)                               : 6 channels
Channel layout                           : L R C LFE Ls Rs
Sampling rate                            : 48.0 kHz
Frame rate                               : 31.250 FPS (1536 SPF)
Compression mode                         : Lossy
Stream size                              : 170 MiB (11%)
Title                                    : English
Language                                 : English
Service kind                             : Complete Main
Default                                  : No
Forced                                   : No
Complexity index                         : 16
Number of dynamic objects                : 15
Bed channel count                        : 1 channel
Bed channel configuration                : LFE

Text #1
ID                                       : 4
Format                                   : ASS
Codec ID                                 : S_TEXT/ASS
Codec ID/Info                            : Advanced Sub Station Alpha
Duration                                 : 1 s 670 ms
Bit rate                                 : 316 b/s
Count of elements                        : 1
Compression mode                         : Lossless
Stream size                              : 66.0 Bytes (0%)
Title                                    : Russian [Forced]
Language                                 : Russian
Default                                  : Yes
Forced                                   : Yes

Text #2
ID                                       : 5
Format                                   : UTF-8
Codec ID                                 : S_TEXT/UTF8
Codec ID/Info                            : UTF-8 Plain Text
Duration                                 : 50 min 13 s
Bit rate                                 : 61 b/s
Count of elements                        : 499
Stream size                              : 22.7 KiB (0%)
Title                                    : Russian [Full]
Language                                 : Russian
Default                                  : No
Forced                                   : No

Text #3
ID                                       : 6
Format                                   : UTF-8
Codec ID                                 : S_TEXT/UTF8
Codec ID/Info                            : UTF-8 Plain Text
Duration                                 : 50 min 50 s
Bit rate                                 : 53 b/s
Count of elements                        : 671
Stream size                              : 20.0 KiB (0%)
Title                                    : English
Language                                 : English
Default                                  : No
Forced                                   : No




Скриншоты:
[+] Всего файлов в раздаче - 13:
Marvels.The.Punisher.S02E13.NewStudio.(Wanterlude).mkv1.52 GB
Marvels.The.Punisher.S02E01.NewStudio.(Wanterlude).mkv1.56 GB
Marvels.The.Punisher.S02E08.NewStudio.(Wanterlude).mkv1.57 GB
Marvels.The.Punisher.S02E02.NewStudio.(Wanterlude).mkv1.57 GB
Marvels.The.Punisher.S02E05.NewStudio.(Wanterlude).mkv1.58 GB
Marvels.The.Punisher.S02E07.NewStudio.(Wanterlude).mkv1.60 GB
Marvels.The.Punisher.S02E12.NewStudio.(Wanterlude).mkv1.65 GB
Marvels.The.Punisher.S02E11.NewStudio.(Wanterlude).mkv1.68 GB
Marvels.The.Punisher.S02E06.NewStudio.(Wanterlude).mkv1.74 GB
Marvels.The.Punisher.S02E10.NewStudio.(Wanterlude).mkv1.90 GB
Marvels.The.Punisher.S02E09.NewStudio.(Wanterlude).mkv2.18 GB
Marvels.The.Punisher.S02E03.NewStudio.(Wanterlude).mkv2.32 GB
Marvels.The.Punisher.S02E04.NewStudio.(Wanterlude).mkv2.65 GB

Показать еще раздачи по запросу каратель:
2019-02-27 U Каратель / The Punisher [S02] (2019) WEBRip | LostFilm 8.37 GB ↑ 59 ↓ 59
2019-02-06 U Каратель / The Punisher [S02] (2019) WEBRip 720p | NewStudio 12.44 GB ↑ 48 ↓ 110
2019-01-30 U Каратель / The Punisher [S02] (2019) WEBRip 720p | BaibaKo 12.14 GB ↑ 142 ↓ 173
2019-01-24 U Каратель / The Punisher [S02] (2019) WEBRip | IdeaFilm 10.29 GB ↑ 71 ↓ 173
2019-01-24 U Каратель / The Punisher [02x01-08 из 13] (2019) WEBRip 720p | BaibaKo 7.43 GB ↑ 59 ↓ 57
2019-01-24 U Каратель / The Punisher [02x01-02 из 13] (2019) WEBRip 1080p | LostFilm 1К4.53 GB ↑ 29 ↓ 19
2019-01-23 U Каратель / The Punisher [02x01-06 из 13] (2019) WEBRip 720p | HorizonStudio 6.86 GB ↑ 38 ↓ 38

Отзывы
Зарегистрируйтесь чтобы добавить комментарий.
Обратная связь
Copyleft ©