↑↓Torrent.by
Поиск
Логин: Регистрация
Пароль: Восстановить пароль
Загрузка...

Три богатыря и Наследница престола (2018) WEB-DLRip-AVC от ExKinoRay | iTunes

Скачать tri-bogatyrya-i-naslednica-prestola-2018-web-dlrip-avc-ot-exkinoray-itunes.torrent
U Магнитная ссылка Размер: 1.17 GB Раздают: 140 Качают: 30 Добавлен: 2019-02-06 06:26:38
Три богатыря и Наследница престола (2018) WEB-DLRip-AVC от ExKinoRay | iTunes

Название: Три богатыря и Наследница престола
Год выхода: 2018
Жанр: Мультфильм, приключения, семейный
Режиссер: Константин Бронзит
В ролях: Михаил Черняк, Сергей Маковецкий, Дмитрий Быковский-Ромашов, Валерий Соловьев, Олег Куликович, Дмитрий Высоцкий, Александр Боярский, Екатерина Гороховская, Юрий Тарасов, Юрий Кузнецов

Описание:  
Князь Киевский решил назначить наследника престола, только вот незадача - кто это может быть? Родственник, друг семьи или может быть, заморская принцесса? Недолго думая, Князь-батюшка выбирает почти принцессу, а главное родственницу - племянницу Забаву. Нынче она вместе со своим мужем Елисеем (помните верного ученика Добрыни Никитича?) получает образование в далеком Царьграде, где правит коварный Василевс. Чтобы вернуть наследницу на родные просторы за тридевять земель в спешном порядке отправляются три богатыря и, конечно же, главный придворный конь Юлий.

Страна: Россия
Студия: "Мельница"
Продолжительность: 01:21:10
Язык: Русский | iTunes

БЕЗ КАКОЙ-ЛИБО РЕКЛАМЫ!

Формат: MKV
Качество: WEB-DLRip-AVC
Видео: MPEG-4 AVC, 1024x576 (2.40:1), 25.000 fps, 1680 Kbps, 0.114 bit/pixel
Аудио: 48 kHz, AC3, 5.1, 384 Kbps | RUS |

Релиз:

Автор релиза:


[+] ОтчетМедиаИнфо

General
Unique ID                                : 252044840229240954344763204252597440524 (0xBD9E120D1CC5865D98DA3E5E65C3500C)
Complete name                            : D:Три.богатыря.и.Наследница.престола.2018.WEB-DLRip.AVC.ExKinoRay.mkv
Format                                   : Matroska
Format version                           : Version 2
File size                                : 1.17 GiB
Duration                                 : 1 h 21 min
Overall bit rate                         : 2 065 kb/s
Movie name                               : Три богатыря и Наследница престола (2018) from ExKinoRay
Encoded date                             : UTC 2019-02-06 02:13:58
Writing application                      : mkvmerge v5.6.0 ('Kenya Kane') built on May 27 2012 16:44:04
Writing library                          : libebml v1.2.3 + libmatroska v1.3.0
Attachments                              : poster.png

Video
ID                                       : 1
Format                                   : AVC
Format/Info                              : Advanced Video Codec
Format profile                           : High@L4.1
Format settings, CABAC                   : Yes
Format settings, ReFrames                : 11 frames
Codec ID                                 : V_MPEG4/ISO/AVC
Duration                                 : 1 h 21 min
Bit rate                                 : 1 680 kb/s
Width                                    : 1 024 pixels
Height                                   : 576 pixels
Display aspect ratio                     : 16:9
Frame rate mode                          : Constant
Frame rate                               : 25.000 FPS
Color space                              : YUV
Chroma subsampling                       : 4:2:0
Bit depth                                : 8 bits
Scan type                                : Progressive
Bits/(Pixel*Frame)                       : 0.114
Stream size                              : 952 MiB (79%)
Title                                    : Enigma
Writing library                          : x264 core 152 r2851 ba24899
Encoding settings                        : cabac=1 / ref=11 / deblock=1:-2:-2 / analyse=0x3:0x113 / me=umh / subme=10 / psy=1 / psy_rd=1.05:0.10 / mixed_ref=1 / me_range=32 / chroma_me=1 / trellis=2 / 8x8dct=1 / cqm=0 / deadzone=21,11 / fast_pskip=0 / chroma_qp_offset=-3 / threads=12 / lookahead_threads=3 / sliced_threads=0 / nr=0 / decimate=0 / interlaced=0 / bluray_compat=0 / constrained_intra=0 / bframes=10 / b_pyramid=2 / b_adapt=2 / b_bias=0 / direct=3 / weightb=1 / open_gop=0 / weightp=2 / keyint=250 / keyint_min=25 / scenecut=40 / intra_refresh=0 / rc=2pass / mbtree=0 / bitrate=1680 / ratetol=1.0 / qcomp=0.60 / qpmin=0 / qpmax=51 / qpstep=4 / cplxblur=20.0 / qblur=0.5 / ip_ratio=1.40 / pb_ratio=1.30 / aq=2:0.90
Default                                  : Yes
Forced                                   : No
Color range                              : Limited
Color primaries                          : BT.709
Transfer characteristics                 : BT.709
Matrix coefficients                      : BT.709

Audio
ID                                       : 2
Format                                   : AC-3
Format/Info                              : Audio Coding 3
Mode extension                           : CM (complete main)
Format settings, Endianness              : Big
Codec ID                                 : A_AC3
Duration                                 : 1 h 21 min
Bit rate mode                            : Constant
Bit rate                                 : 384 kb/s
Channel(s)                               : 6 channels
Channel positions                        : Front: L C R, Side: L R, LFE
Sampling rate                            : 48.0 kHz
Frame rate                               : 31.250 FPS (1536 spf)
Compression mode                         : Lossy
Stream size                              : 223 MiB (19%)
Language                                 : Russian
Default                                  : Yes
Forced                                   : No

Menu
00:00:00.000                             : en:Глава 1
00:06:40.600                             : en:Глава 2
00:13:04.080                             : en:Глава 3
00:19:25.120                             : en:Глава 4
00:27:00.920                             : en:Глава 5
00:33:24.640                             : en:Глава 6
00:39:32.680                             : en:Глава 7
00:46:08.000                             : en:Глава 8
00:53:50.880                             : en:Глава 9
01:02:06.080                             : en:Глава 10
01:07:50.520                             : en:Глава 11
01:12:03.960                             : en:Глава 12




Скриншоты:
[+] Всего файлов в раздаче - 1:
Три.богатыря.и.Наследница.престола.2018.WEB-DLRip.AVC.ExKinoRay.mkv1.17 GB

Показать еще раздачи по запросу богатыря:
2019-02-09 U Три богатыря и наследница престола (2018) WEB-DLRip от Scarabey | iTunes 1.36 GB ↑ 181 ↓ 31
2019-02-07 U Три богатыря и Наследница престола (2018) WEB-DLRip-AVC | iTunes 742.04 MB ↑ 130 ↓ 39
2019-02-06 U Три богатыря и Наследница престола (2018) WEB-DLRip от Generalfilm | КПК | iTunes 308.03 MB ↑ 67 ↓ 17
2019-02-06 U Три богатыря и Наследница престола (2018) WEB-DLRip-AVC от Generalfilm | iTunes 1.05 GB ↑ 428 ↓ 36
2019-02-06 U Три богатыря и Наследница престола (2018) WEB-DL 720p | iTunes 2.57 GB ↑ 519 ↓ 202
2019-02-06 U Три богатыря и Наследница престола (2018) WEB-DLRip-AVC от OlLanDGroup | iTunes 1.55 GB ↑ 145 ↓ 41
2019-02-06 U Три богатыря и Наследница престола (2018) WEB-DLRip от MegaPeer | iTunes 1.46 GB ↑ 971 ↓ 129

Отзывы
Зарегистрируйтесь чтобы добавить комментарий.
Обратная связь
Copyleft ©