↑↓Torrent.by
Поиск
Логин: Регистрация
Пароль: Восстановить пароль
Загрузка...

Фронт [01-03 из 08] (2014) WEBRip от Files-x

Скачать front-01-03-iz-08-2014-webrip-ot-files-x.torrent
U Магнитная ссылка Размер: 2.05 GB Раздают: 157 Качают: 228 Добавлен: 2019-02-06 15:04:25
Фронт [01-03 из 08] (2014) WEBRip от Files-x

Оригинальное название: Фронт
Год выхода: 2014
Жанр: Драма, исторический фильм
Режиссер: Владимир Балкашинов
В ролях: Магдалена Гурская, Павел Южаков-Харланчук, Митя Лабуш, Ольга Кузьмина, Игорь Черневич, Юлия Марченко, Андрей Полищук, Юрий Ицков, Алексей Байдаков, Роман Агеев, Вадим Сквирский, Валерий Кухарешин, Яков Шамшин, Елизавета Нилова, Сергей Соболев, Родион Приходько, Артур Харитоненко, Сергей Калантай, Уршула Малка, Игорь Головин, Сергей Мучеников, Владимир Щербаков, Ирина Горячева, Сергей Кудрявцев, Борис Драгилёв, Алиса Миронова, Александр Солдатов (III), Антон Багров, Аркадий Волгин, Дмитрий Поднозов, Сергей Уманов, Михаил Сидаш, Егор Бакулин, Павел Харизанов, Марчин Руй, Александр Строев (III), Андрей Перович, Вячеслав Коробицин, Евгений Капитонов, Валерий Малюшин, Владимир Маслаков, Артем Бордовский, Сергей Дьячков, Михаил Касапов, Олег Жилин, Алексей Утеганов, Андрей Аверков, Игорь Лепихин, Дмитрий Гирев, Антон Пулит, Валерий Смекалов, Владимир Захарьев, Сергей Малюгов, Егор Садовский, Алексей Одинг, Александр Бахаревский, Сергей Колос, Сергей Евсеев, Роман Грибков, Павел Григорьев, Кирилл Фролов, Крейг Эштон, Дмитрий Шайгарданов, Алесь Снопковский, Дмитрий Петрушков, Николай Данилов, Владимир Чернышов, Денис Пьянов, Артём Лещик, Роман Павлушев

О фильме:
Вторая мировая война. Советское руководство узнает, что немецкий концерн «Ауэрге» ведет разработку атомного оружия. В «Ауэрге» работает ученый-физик Катерина Штур - полька, побывавшая в немецком концлагере. Она пока не осознает всей опасности своих научных изысканий, панически боится гестапо и мечтает сбежать туда, где ей ничто не будет угрожать. Ее мечту может исполнить Влад Вольный, завербованный советскими спецслужбами и получивший задание похитить сотрудника концерна «Ауэрге» и доставить его в Москву...

Страна: Россия
Студия: Epic Media
Продолжительность: 3 х 00:50:10
Перевод: Не требуется

Файл
Кодек: XviD
Качество: WEBRip
Видео: XviD, ~ 1745 Кбит/с, 720x400, 25 кадр/с
Звук: AC3, 2 ch, 192 Кбит/с

Релиз:


[+] MediaInfo

General
Complete name                    : C:01.Фронт.(2014).WEBRip.by.Nicodem.Files-x.avi
Format                           : AVI
Format/Info                      : Audio Video Interleave
File size                        : 700 MiB
Duration                         : 50mn 16s
Overall bit rate                 : 1 946 Kbps
Writing application              : VirtualDubMod 1.5.10.3 | www.virtualdub-fr.org || (build 2550/release)
Writing library                  : VirtualDubMod build 2550/release

Video
ID                               : 0
Format                           : MPEG-4 Visual
Format profile                   : Advanced Simple@L5
Format settings, BVOP            : 1
Format settings, QPel            : No
Format settings, GMC             : No warppoints
Format settings, Matrix          : Custom
Codec ID                         : XVID
Codec ID/Hint                    : XviD
Duration                         : 50mn 16s
Bit rate                         : 1 745 Kbps
Width                            : 720 pixels
Height                           : 400 pixels
Display aspect ratio             : 16:9
Frame rate                       : 25.000 fps
Color space                      : YUV
Chroma subsampling               : 4:2:0
Bit depth                        : 8 bits
Scan type                        : Progressive
Compression mode                 : Lossy
Bits/(Pixel*Frame)               : 0.242
Stream size                      : 627 MiB (90%)
Writing library                  : XviD 73

Audio
ID                               : 1
Format                           : AC-3
Format/Info                      : Audio Coding 3
Mode extension                   : CM (complete main)
Codec ID                         : 2000
Duration                         : 50mn 16s
Bit rate mode                    : Constant
Bit rate                         : 192 Kbps
Channel(s)                       : 2 channels
Channel positions                : Front: L R
Sampling rate                    : 48.0 KHz
Bit depth                        : 16 bits
Compression mode                 : Lossy
Stream size                      : 69.0 MiB (10%)
Alignment                        : Split accross interleaves
Interleave, duration             : 40 ms (1.00 video frame)
Interleave, preload duration     : 500 ms



Скриншоты:
[+] Всего файлов в раздаче - 3:
02.Фронт.(2014).WEBRip.by.Nicodem.Files-x.avi699.79 MB
01.Фронт.(2014).WEBRip.by.Nicodem.Files-x.avi699.84 MB
03.Фронт.(2014).WEBRip.by.Nicodem.Files-x.avi700.12 MB

Показать еще раздачи по запросу фронт:
2019-02-14 U Фронт [01-08 из 08] (2014) WEBRip 720p от Files-x 8.20 GB ↑ 107 ↓ 183
2019-02-14 U Фронт [01-08 из 08] (2014) WEBRip 1080p от Files-x 9.85 GB ↑ 174 ↓ 268
2019-02-14 U Фронт [01-08 из 08] (2014) WEBRip от Files-x 5.42 GB ↑ 130 ↓ 280
2019-02-14 U Фронт [01-08 из 08] (2014) WEBRip от GeneralFilm 1К4.35 GB ↑ 363 ↓ 619
2019-02-14 U Фронт [01х01-08 из 08] (2019) WEBRip-AVC 6.04 GB ↑ 6 ↓ 8
2019-02-14 U Фронт [01-08 из 08] (2014) WEBRip-AVC от Files-x 4.93 GB ↑ 58 ↓ 77
2019-02-14 U Фронт [01-07 из 08] (2014) WEBRip 1080p от Files-x 8.78 GB ↑ 46 ↓ 51

Отзывы
Зарегистрируйтесь чтобы добавить комментарий.
Обратная связь
Copyleft ©